(Hardcore, Gabber) [CDM] Rotterdam Remix Project - Loving You - 1993, FLAC (tracks+.cue), lossless :: Ивановский Торрент трекер
Важное объявление!
У Нас Все раздачи мультитрекерные, при нуле пиров в релизах, можете смело вставать на закачку!
Статистика раздачи
Размер:     |    Зарегистрирован:     |    Скачан:     |   
Нет
 
     
 
 
Автор Сообщение

HUNTER

Стаж:
4 года 11 месяцев
Сообщений:
66077

Репутация: 101

[+] [-]
Вне форума [Профиль] [ЛС]

Rotterdam Remix Project / Loving You
Жанр: Hardcore, Gabber
Носитель: CDM
Год издания: 1993
Издатель (лейбл): Rotterdam Records
Номер по каталогу: ROT 125
Аудиокодек: FLAC (*.flac)
Тип рипа: tracks+.cue
Битрейт аудио: lossless
Продолжительность: 14:09
Источник (релизер): what.cd
Наличие сканов в содержимом раздачи: нет
Треклист:
01. Rotterdam Remix Project - Loving You (X-rated Version) [04:45]
02. Rotterdam Remix Project - Loving You (Rotterdam Mix) [05:07]
03. Rotterdam Remix Project - Loving You (Hardcore Mix) [04:17]

Лог создания рипа

Exact Audio Copy V1.0 beta 3 from 29. August 2011
EAC extraction logfile from 18. December 2014, 12:48
Rotterdam Remix Project / Loving You
Used drive : ATAPI iHAS324 B Adapter: 0 ID: 2
Read mode : SecureUtilize accurate stream : YesDefeat audio cache : YesMake use of C2 pointers : No
Read offset correction : 6Overread into Lead-In and Lead-Out : NoFill up missing offset samples with silence : YesDelete leading and trailing silent blocks : NoNull samples used in CRC calculations : YesUsed interface : Native Win32 interface for Win NT & 2000Gap handling : Appended to previous track
Used output format : User Defined EncoderSelected bitrate : 1024 kBit/sQuality : HighAdd ID3 tag : NoCommand line compressor : F:\Exact Audio Copy\Flac\flac.exeAdditional command line options : -8 -V -T "ARTIST=%artist%" -T "TITLE=%title%" -T "ALBUM=%albumtitle%" -T "DATE=%year%" -T "TRACKNUMBER=%tracknr%" -T "GENRE=%genre%" -T "PERFORMER=%albuminterpret%" -T "COMPOSER=%composer%" %haslyrics%--tag-from-file=LYRICS="%lyricsfile%"%haslyrics% -T "ALBUMARTIST=%albumartist%" -T "DISCNUMBER=%cdnumber%" -T "TOTALDISCS=%totalcds%" -T "TOTALTRACKS=%numtracks%" -T "COMMENT=%comment%" %source% -o %dest%
TOC of the extracted CD
Track | Start | Length | Start sector | End sector --------------------------------------------------------- 1 | 0:00.00 | 4:45.00 | 0 | 21374 2 | 4:45.00 | 5:06.35 | 21375 | 44359 3 | 9:51.35 | 4:16.60 | 44360 | 63619
Track 1
Filename H:\EAC rips\FLAC\Rotterdam Remix Project - Loving You (CDS) (1993) [FLAC]\01 - Loving You (X-rated Version).wav
Pre-gap length 0:00:02.00
Peak level 99.0 % Extraction speed 3.5 X Track quality 100.0 % Test CRC 7D3E15DD Copy CRC 7D3E15DD Track not present in AccurateRip database Copy OK
Track 2
Filename H:\EAC rips\FLAC\Rotterdam Remix Project - Loving You (CDS) (1993) [FLAC]\02 - Loving You (Rotterdam Mix).wav
Pre-gap length 0:00:01.82
Peak level 99.0 % Extraction speed 4.0 X Track quality 100.0 % Test CRC 23597ECE Copy CRC 23597ECE Track not present in AccurateRip database Copy OK
Track 3
Filename H:\EAC rips\FLAC\Rotterdam Remix Project - Loving You (CDS) (1993) [FLAC]\03 - Loving You (Hardcore Mix).wav
Pre-gap length 0:00:01.82
Peak level 99.0 % Extraction speed 4.3 X Track quality 100.0 % Test CRC E827A9D4 Copy CRC E827A9D4 Track not present in AccurateRip database Copy OK
None of the tracks are present in the AccurateRip database
No errors occurred
End of status report
---- CUETools DB Plugin V2.1.3
[CTDB TOCID: _lFrsEBAf4kP31hLCF7YlhTT4TY-] disk not present in database, Submit result: _lFrsEBAf4kP31hLCF7YlhTT4TY- has been uploaded
==== Log checksum 69AA37283F4605956C6C38486FD54B80FD0C16A84117B3F70F53F0EE89E16B4C ====

Содержание индексной карты (.CUE)

REM GENRE ElectronicREM DATE 1993REM DISCID 24035003REM COMMENT "ExactAudioCopy v1.0b3"PERFORMER "Rotterdam Remix Project"TITLE "Loving You"FILE "01 - Loving You (X-rated Version).wav" WAVE TRACK 01 AUDIO TITLE "Loving You (X-rated Version)" PERFORMER "Rotterdam Remix Project" INDEX 01 00:00:00 TRACK 02 AUDIO TITLE "Loving You (Rotterdam Mix)" PERFORMER "Rotterdam Remix Project" INDEX 00 04:43:13FILE "02 - Loving You (Rotterdam Mix).wav" WAVE INDEX 01 00:00:00 TRACK 03 AUDIO TITLE "Loving You (Hardcore Mix)" PERFORMER "Rotterdam Remix Project" INDEX 00 05:04:48FILE "03 - Loving You (Hardcore Mix).wav" WAVE INDEX 01 00:00:00

_________________
Показать сообщения:    

Текущее время: Сегодня 16:39

Часовой пояс: GMT



Вы не можете начинать темы
Вы не можете отвечать на сообщения
Вы не можете редактировать свои сообщения
Вы не можете удалять свои сообщения
Вы не можете голосовать в опросах
Вы не можете прикреплять файлы к сообщениям
Вы не можете скачивать файлы