Ивановский Торрент трекер
Яндекс.Погода
 

[Цитировать]
HUNTER

Hardcore Time 2 - Fresh Meat
Жанр: Hardcore, Gabber
Носитель: CD
Страна-производитель диска (релиза): Russia
Год издания: 2001
Издатель (лейбл): D.N.K. Music
Номер по каталогу: none
Аудиокодек: FLAC (*.flac)
Тип рипа: tracks+.cue
Битрейт аудио: lossless
Продолжительность: 01:12:54
Источник (релизер): Рип с диска из собственной коллекции.
Наличие сканов в содержимом раздачи: нет
Треклист:
1. DJ Wicked - Core Resurrection (4:29)
2. The Viper - X-Terminate (5:55)
3. Scott Brown - Bass Be Louder (3:56)
4. Evil Activities - Angel Of Death (4:19)
5. Scott Brown - Critical Level (4:52)
6. DJ Nosferatu - The Future (Evil Activities Rmx) (4:46)
7. MC Rage - Outlaw (Placid K Mix) (4:20)
8. DJ Paul - Get Off The Fucking Car (3:35)
9. Evil Activities - Intro (2:14)
10. Evil Activities - X-Tinction (4:47)
11. Placid K - It's Been A Long Time (3:45)
12. Evil Activities feat. DJ Panic - Be Quiet (3:56)
13. Neophyte - D.R.U.G.S. (4:05)
14. Evil Activities - MC's & DJ's (3:22)
15. RTC vs. Headbanger - Hardcore Generation (3:23)
16. Da Predator - Knuckleheadz (6:53)
17. DJ Wicked - Back Up The Groove (4:17)

Лог создания рипа

Exact Audio Copy V1.0 beta 3 from 29. August 2011
EAC extraction logfile from 4. April 2015, 11:37
Various Artists / Hardcore Time 2
Used drive : PIONEER DVD-RW DVR-111D Adapter: 0 ID: 0
Read mode : SecureUtilize accurate stream : YesDefeat audio cache : YesMake use of C2 pointers : No
Read offset correction : 48Overread into Lead-In and Lead-Out : NoFill up missing offset samples with silence : YesDelete leading and trailing silent blocks : NoNull samples used in CRC calculations : YesUsed interface : Installed external ASPI interfaceGap handling : Appended to previous track
Used output format : User Defined EncoderSelected bitrate : 128 kBit/sQuality : HighAdd ID3 tag : NoCommand line compressor : C:\Program Files (x86)\Exact Audio Copy\Flac\flac.exeAdditional command line options : -8 -V -T "ARTIST=%artist%" -T "TITLE=%title%" -T "ALBUM=%albumtitle%" -T "DATE=%year%" -T "TRACKNUMBER=%tracknr%" -T "TOTALTRACKS=%numtracks%" -T "DISCNUMBER=%cdnumber%" -T "TOTALDISCS=%totalcds%" -T "PERFORMER=%albuminterpret%" -T "COMPOSER=%composer%" -T "GENRE=%genre%" -T "ALBUMARTIST=%albumartist%" -T "ALBUM ARTIST=%albumartist%" -T "COMMENT=%comment%" %source%
TOC of the extracted CD
Track | Start | Length | Start sector | End sector --------------------------------------------------------- 1 | 0:00.00 | 4:29.70 | 0 | 20244 2 | 4:29.70 | 5:55.47 | 20245 | 46916 3 | 10:25.42 | 3:56.49 | 46917 | 64665 4 | 14:22.16 | 4:19.29 | 64666 | 84119 5 | 18:41.45 | 4:52.14 | 84120 | 106033 6 | 23:33.59 | 4:46.46 | 106034 | 127529 7 | 28:20.30 | 4:20.13 | 127530 | 147042 8 | 32:40.43 | 3:35.59 | 147043 | 163226 9 | 36:16.27 | 2:14.19 | 163227 | 173295 10 | 38:30.46 | 4:47.42 | 173296 | 194862 11 | 43:18.13 | 3:45.73 | 194863 | 211810 12 | 47:04.11 | 3:56.20 | 211811 | 229530 13 | 51:00.31 | 4:05.27 | 229531 | 247932 14 | 55:05.58 | 3:22.27 | 247933 | 263109 15 | 58:28.10 | 3:23.62 | 263110 | 278396 16 | 61:51.72 | 6:53.59 | 278397 | 309430 17 | 68:45.56 | 4:17.29 | 309431 | 328734
Track 1
Filename D:\Новая папка\01. DJ Wicked - Core Resurrection.wav
Pre-gap length 0:00:02.00
Peak level 98.6 % Extraction speed 4.2 X Track quality 99.9 % Test CRC 11D1955B Copy CRC 11D1955B Track not present in AccurateRip database Copy OK
Track 2
Filename D:\Новая папка\02. The Viper - X-Terminate.wav
Peak level 100.0 % Extraction speed 5.4 X Track quality 100.0 % Test CRC 211A1244 Copy CRC 211A1244 Track not present in AccurateRip database Copy OK
Track 3
Filename D:\Новая папка\03. Scott Brown - Bass Be Louder.wav
Peak level 100.0 % Extraction speed 5.6 X Track quality 100.0 % Test CRC 4018B683 Copy CRC 4018B683 Track not present in AccurateRip database Copy OK
Track 4
Filename D:\Новая папка\04. Evil Activities - Angel Of Death.wav
Peak level 98.6 % Extraction speed 6.0 X Track quality 100.0 % Test CRC F483D067 Copy CRC F483D067 Track not present in AccurateRip database Copy OK
Track 5
Filename D:\Новая папка\05. Scott Brown - Critical Level.wav
Peak level 100.0 % Extraction speed 6.6 X Track quality 100.0 % Test CRC 04A8F77F Copy CRC 04A8F77F Track not present in AccurateRip database Copy OK
Track 6
Filename D:\Новая папка\06. DJ Nosferatu - The Future (Evil Activities Rmx).wav
Peak level 99.2 % Extraction speed 6.8 X Track quality 100.0 % Test CRC B97C638E Copy CRC B97C638E Track not present in AccurateRip database Copy OK
Track 7
Filename D:\Новая папка\07. MC Rage - Outlaw (Placid K Mix).wav
Peak level 98.4 % Extraction speed 7.1 X Track quality 100.0 % Test CRC 103A6DE8 Copy CRC 103A6DE8 Track not present in AccurateRip database Copy OK
Track 8
Filename D:\Новая папка\08. DJ Paul - Get Off The Fucking Car.wav
Peak level 97.6 % Extraction speed 6.2 X Track quality 99.9 % Test CRC A5FB53F5 Copy CRC A5FB53F5 Track not present in AccurateRip database Copy OK
Track 9
Filename D:\Новая папка\09. Evil Activities - Intro.wav
Peak level 84.9 % Extraction speed 6.7 X Track quality 100.0 % Test CRC DE5BFFF6 Copy CRC DE5BFFF6 Track not present in AccurateRip database Copy OK
Track 10
Filename D:\Новая папка\10. Evil Activities - X-Tinction.wav
Peak level 100.0 % Extraction speed 7.7 X Track quality 100.0 % Test CRC D7D69E0F Copy CRC D7D69E0F Track not present in AccurateRip database Copy OK
Track 11
Filename D:\Новая папка\11. Placid K - It's Been A Long Time.wav
Peak level 98.8 % Extraction speed 7.9 X Track quality 100.0 % Test CRC 86F27FE3 Copy CRC 86F27FE3 Track not present in AccurateRip database Copy OK
Track 12
Filename D:\Новая папка\12. Evil Activities feat. DJ Panic - Be Quiet.wav
Peak level 97.8 % Extraction speed 8.1 X Track quality 100.0 % Test CRC C921EB44 Copy CRC C921EB44 Track not present in AccurateRip database Copy OK
Track 13
Filename D:\Новая папка\13. Neophyte - D.R.U.G.S..wav
Peak level 98.1 % Extraction speed 7.4 X Track quality 99.9 % Test CRC D1D14771 Copy CRC D1D14771 Track not present in AccurateRip database Copy OK
Track 14
Filename D:\Новая папка\14. Evil Activities - MC's & DJ's.wav
Peak level 97.4 % Extraction speed 8.2 X Track quality 100.0 % Test CRC 8DFE6B97 Copy CRC 8DFE6B97 Track not present in AccurateRip database Copy OK
Track 15
Filename D:\Новая папка\15. RTC vs. Headbanger - Hardcore Generation.wav
Peak level 98.6 % Extraction speed 7.3 X Track quality 99.9 % Test CRC 374FB80E Copy CRC 374FB80E Track not present in AccurateRip database Copy OK
Track 16
Filename D:\Новая папка\16. Da Predator - Knuckleheadz.wav
Peak level 100.0 % Extraction speed 9.4 X Track quality 100.0 % Test CRC C0EB5308 Copy CRC C0EB5308 Track not present in AccurateRip database Copy OK
Track 17
Filename D:\Новая папка\17. DJ Wicked - Back Up The Groove.wav
Pre-gap length 0:00:01.19
Suspicious position 0:00:28 Suspicious position 0:00:37
Peak level 100.0 % Extraction speed 3.3 X Track quality 99.4 % Test CRC FBAF2F63 Copy CRC B2D69EDB Track not present in AccurateRip database Copy finished
None of the tracks are present in the AccurateRip database
There were errors
End of status report
==== Log checksum C9BF451C700714BE153AC9015604CE03BBCF065275100AA73E283B37A6950C84 ====

Содержание индексной карты (.CUE)

REM GENRE HardcoreREM DATE 2002REM DISCID CC111F11REM COMMENT "ExactAudioCopy v1.0b3"PERFORMER "Various Artists"TITLE "Hardcore Time 2"FILE "01. DJ Wicked - Core Resurrection.wav" WAVE TRACK 01 AUDIO TITLE "Core Resurrection" PERFORMER "DJ Wicked" INDEX 01 00:00:00FILE "02. The Viper - X-Terminate.wav" WAVE TRACK 02 AUDIO TITLE "X-Terminate" PERFORMER "The Viper" INDEX 01 00:00:00FILE "03. Scott Brown - Bass Be Louder.wav" WAVE TRACK 03 AUDIO TITLE "Bass Be Louder" PERFORMER "Scott Brown" INDEX 01 00:00:00FILE "04. Evil Activities - Angel Of Death.wav" WAVE TRACK 04 AUDIO TITLE "Angel Of Death" PERFORMER "Evil Activities" INDEX 01 00:00:00FILE "05. Scott Brown - Critical Level.wav" WAVE TRACK 05 AUDIO TITLE "Critical Level" PERFORMER "Scott Brown" INDEX 01 00:00:00FILE "06. DJ Nosferatu - The Future (Evil Activities Rmx).wav" WAVE TRACK 06 AUDIO TITLE "The Future (Evil Activities Rmx)" PERFORMER "DJ Nosferatu" INDEX 01 00:00:00FILE "07. MC Rage - Outlaw (Placid K Mix).wav" WAVE TRACK 07 AUDIO TITLE "Outlaw (Placid K Mix)" PERFORMER "MC Rage" INDEX 01 00:00:00FILE "08. DJ Paul - Get Off The Fucking Car.wav" WAVE TRACK 08 AUDIO TITLE "Get Off The Fucking Car" PERFORMER "DJ Paul" INDEX 01 00:00:00FILE "09. Evil Activities - Intro.wav" WAVE TRACK 09 AUDIO TITLE "Intro" PERFORMER "Evil Activities" INDEX 01 00:00:00FILE "10. Evil Activities - X-Tinction.wav" WAVE TRACK 10 AUDIO TITLE "X-Tinction" PERFORMER "Evil Activities" INDEX 01 00:00:00FILE "11. Placid K - It's Been A Long Time.wav" WAVE TRACK 11 AUDIO TITLE "It's Been A Long Time" PERFORMER "Placid K" INDEX 01 00:00:00FILE "12. Evil Activities feat. DJ Panic - Be Quiet.wav" WAVE TRACK 12 AUDIO TITLE "Be Quiet" PERFORMER "Evil Activities feat. DJ Panic" INDEX 01 00:00:00FILE "13. Neophyte - D.R.U.G.S..wav" WAVE TRACK 13 AUDIO TITLE "D.R.U.G.S." PERFORMER "Neophyte" INDEX 01 00:00:00FILE "14. Evil Activities - MC's & DJ's.wav" WAVE TRACK 14 AUDIO TITLE "MC's & DJ's" PERFORMER "Evil Activities" INDEX 01 00:00:00FILE "15. RTC vs. Headbanger - Hardcore Generation.wav" WAVE TRACK 15 AUDIO TITLE "Hardcore Generation" PERFORMER "RTC vs. Headbanger" INDEX 01 00:00:00FILE "16. Da Predator - Knuckleheadz.wav" WAVE TRACK 16 AUDIO TITLE "Knuckleheadz" PERFORMER "Da Predator" INDEX 01 00:00:00 TRACK 17 AUDIO TITLE "Back Up The Groove" PERFORMER "DJ Wicked" INDEX 00 06:52:40FILE "17. DJ Wicked - Back Up The Groove.wav" WAVE INDEX 01 00:00:00
Discogs


Показать сообщения:    

Текущее время: 11-Дек 04:16

Часовой пояс: UTC ± 0


Вы не можете начинать темы
Вы не можете отвечать на сообщения
Вы не можете редактировать свои сообщения
Вы не можете удалять свои сообщения
Вы не можете голосовать в опросах
Вы не можете прикреплять файлы к сообщениям
Вы не можете скачивать файлы

!ВНИМАНИЕ!
Сайт не предоставляет электронные версии произведений, а занимается лишь коллекционированием и каталогизацией ссылок, присылаемых и публикуемых на форуме нашими читателями. Если вы являетесь правообладателем какого-либо представленного материала и не желаете, чтобы ссылка на него находилась в нашем каталоге, свяжитесь с нами, и мы незамедлительно удалим ее. Файлы для обмена на трекере предоставлены пользователями сайта, и администрация не несет ответственности за их содержание. Просьба не заливать файлы, защищенные авторскими правами, а также файлы нелегального содержания!