Важное объявление!
У Нас Все раздачи мультитрекерные, при нуле пиров в релизах, можете смело вставать на закачку!
 
Автор Сообщение

HUNTER

Стаж:
4 года 10 месяцев
Сообщений:
65492

Репутация: 101

[+] [-]
Вне форума [Профиль] [ЛС]

Hardcore Time - Fresh Meat
Жанр: Hardcore, Gabber
Носитель: CD
Страна-производитель диска (релиза): Russia
Год издания: 2001
Издатель (лейбл): D.N.K. Music
Номер по каталогу: none
Аудиокодек: FLAC (*.flac)
Тип рипа: tracks+.cue
Битрейт аудио: lossless
Продолжительность: 01:12:41
Источник (релизер): Рип с диска из собственной коллекции.
Наличие сканов в содержимом раздачи: нет
Треклист:
1. Rexantony - USA flash (6:06)
2. DJ Rob & MC Joe - Hardbeat (4:47)
3. Allenator vs Headbanger - G-CORE (4:18)
4. Neophyte - Basstard/Asshole (5:13)
5. DJ Outblast vs DJ Wicked - Masters symphony (4:58)
6. Alienator vs Headbanger - Headbangin' beat (3:37)
7. Tommyknocker - Volume on the dancefloor (3:52)
8. The masochist - Hardcoor (3:36)
9. DJ Outblast - Hardcore time (3:57)
10. Evil activities - World eclypse (2:59)
11. T-Wisted feat. Pino D'Ambini - Respect the cock (4:36)
12. The Stunned guys & DJ Paul - More than rough (4:23)
13. The Stunned guys & DJ Paul - Thrillseeka (Hardcreation remix) (4:59)
14. Bass-D & King Matthew - Resistance is futile (5:01)
15. Art of fighters - Artwork (4:22)
16. Da predator - 20000 Hardcore members (5:57)

Лог создания рипа

Exact Audio Copy V1.0 beta 3 from 29. August 2011
EAC extraction logfile from 4. April 2015, 10:35
Various Artists / Hardcore Time - Fresh Meat
Used drive : PIONEER DVD-RW DVR-111D Adapter: 0 ID: 0
Read mode : SecureUtilize accurate stream : YesDefeat audio cache : YesMake use of C2 pointers : No
Read offset correction : 48Overread into Lead-In and Lead-Out : NoFill up missing offset samples with silence : YesDelete leading and trailing silent blocks : NoNull samples used in CRC calculations : YesUsed interface : Installed external ASPI interfaceGap handling : Appended to previous track
Used output format : User Defined EncoderSelected bitrate : 128 kBit/sQuality : HighAdd ID3 tag : NoCommand line compressor : C:\Program Files (x86)\Exact Audio Copy\Flac\flac.exeAdditional command line options : -8 -V -T "ARTIST=%artist%" -T "TITLE=%title%" -T "ALBUM=%albumtitle%" -T "DATE=%year%" -T "TRACKNUMBER=%tracknr%" -T "TOTALTRACKS=%numtracks%" -T "DISCNUMBER=%cdnumber%" -T "TOTALDISCS=%totalcds%" -T "PERFORMER=%albuminterpret%" -T "COMPOSER=%composer%" -T "GENRE=%genre%" -T "ALBUMARTIST=%albumartist%" -T "ALBUM ARTIST=%albumartist%" -T "COMMENT=%comment%" %source%
TOC of the extracted CD
Track | Start | Length | Start sector | End sector --------------------------------------------------------- 1 | 0:00.00 | 6:06.23 | 0 | 27472 2 | 6:06.23 | 4:47.25 | 27473 | 49022 3 | 10:53.48 | 4:18.43 | 49023 | 68415 4 | 15:12.16 | 5:13.43 | 68416 | 91933 5 | 20:25.59 | 4:58.18 | 91934 | 114301 6 | 25:24.02 | 3:37.25 | 114302 | 130601 7 | 29:01.27 | 3:52.71 | 130602 | 148072 8 | 32:54.23 | 3:36.31 | 148073 | 164303 9 | 36:30.54 | 3:57.30 | 164304 | 182108 10 | 40:28.09 | 2:59.10 | 182109 | 195543 11 | 43:27.19 | 4:36.31 | 195544 | 216274 12 | 48:03.50 | 4:23.03 | 216275 | 236002 13 | 52:26.53 | 4:59.61 | 236003 | 258488 14 | 57:26.39 | 5:01.39 | 258489 | 281102 15 | 62:28.03 | 4:22.28 | 281103 | 300780 16 | 66:50.31 | 5:57.07 | 300781 | 327562
Track 1
Filename D:\Новая папка\01. Rexantony - USA flash.wav
Pre-gap length 0:00:02.00
Peak level 100.0 % Extraction speed 4.9 X Track quality 100.0 % Test CRC F2FF28EA Copy CRC F2FF28EA Track not present in AccurateRip database Copy OK
Track 2
Filename D:\Новая папка\02. DJ Rob & MC Joe - Hardbeat.wav
Peak level 94.9 % Extraction speed 5.3 X Track quality 100.0 % Test CRC 3F86AA27 Copy CRC 3F86AA27 Track not present in AccurateRip database Copy OK
Track 3
Filename D:\Новая папка\03. Allenator vs Headbanger - G-CORE.wav
Peak level 100.0 % Extraction speed 5.7 X Track quality 100.0 % Test CRC 16905C25 Copy CRC 16905C25 Track not present in AccurateRip database Copy OK
Track 4
Filename D:\Новая папка\04. Neophyte - Basstard,Asshole.wav
Peak level 100.0 % Extraction speed 6.2 X Track quality 100.0 % Test CRC 5BF2D4F8 Copy CRC 5BF2D4F8 Track not present in AccurateRip database Copy OK
Track 5
Filename D:\Новая папка\05. DJ Outblast vs DJ Wicked - Masters symphony.wav
Peak level 100.0 % Extraction speed 6.6 X Track quality 100.0 % Test CRC E8A41F2D Copy CRC E8A41F2D Track not present in AccurateRip database Copy OK
Track 6
Filename D:\Новая папка\06. Alienator vs Headbanger - Headbangin' beat.wav
Peak level 100.0 % Extraction speed 6.6 X Track quality 100.0 % Test CRC 43CA8A3B Copy CRC 43CA8A3B Track not present in AccurateRip database Copy OK
Track 7
Filename D:\Новая папка\07. Tommyknocker - Volume on the dancefloor.wav
Peak level 100.0 % Extraction speed 6.9 X Track quality 100.0 % Test CRC 0B8C2968 Copy CRC 0B8C2968 Track not present in AccurateRip database Copy OK
Track 8
Filename D:\Новая папка\08. The masochist - Hardcoor.wav
Peak level 100.0 % Extraction speed 7.0 X Track quality 100.0 % Test CRC 7605FBFB Copy CRC 7605FBFB Track not present in AccurateRip database Copy OK
Track 9
Filename D:\Новая папка\09. DJ Outblast - Hardcore time.wav
Peak level 100.0 % Extraction speed 6.5 X Track quality 99.9 % Test CRC 8EDAAD68 Copy CRC 8EDAAD68 Track not present in AccurateRip database Copy OK
Track 10
Filename D:\Новая папка\10. Evil activities - World eclypse.wav
Peak level 89.0 % Extraction speed 7.3 X Track quality 100.0 % Test CRC 469257AF Copy CRC 469257AF Track not present in AccurateRip database Copy OK
Track 11
Filename D:\Новая папка\11. T-Wisted feat. Pino D'Ambini - Respect the cock.wav
Peak level 100.0 % Extraction speed 7.9 X Track quality 100.0 % Test CRC 79B96769 Copy CRC 79B96769 Track not present in AccurateRip database Copy OK
Track 12
Filename D:\Новая папка\12. The Stunned guys & DJ Paul - More than rough.wav
Peak level 100.0 % Extraction speed 8.0 X Track quality 100.0 % Test CRC 8BE1EC09 Copy CRC 8BE1EC09 Track not present in AccurateRip database Copy OK
Track 13
Filename D:\Новая папка\13. The Stunned guys & DJ Paul - Thrillseeka (Hardcreation remix).wav
Peak level 100.0 % Extraction speed 8.4 X Track quality 100.0 % Test CRC EC9C3BB7 Copy CRC EC9C3BB7 Track not present in AccurateRip database Copy OK
Track 14
Filename D:\Новая папка\14. Bass-D & King Matthew - Resistance is futile.wav
Peak level 100.0 % Extraction speed 8.6 X Track quality 100.0 % Test CRC EEFF67F7 Copy CRC EEFF67F7 Track not present in AccurateRip database Copy OK
Track 15
Filename D:\Новая папка\15. Art of fighters - Artwork.wav
Peak level 97.4 % Extraction speed 8.7 X Track quality 100.0 % Test CRC C59A930E Copy CRC C59A930E Track not present in AccurateRip database Copy OK
Track 16
Filename D:\Новая папка\16. Da predator - 20000 Hardcore members.wav
Peak level 100.0 % Extraction speed 9.3 X Track quality 100.0 % Test CRC 4147991D Copy CRC 4147991D Track not present in AccurateRip database Copy OK
None of the tracks are present in the AccurateRip database
No errors occurred
End of status report
==== Log checksum F870D7B8C927C1F229FD0BF2ABF618F2CB463DD153CE7D6E0601875464204FD5 ====

Содержание индексной карты (.CUE)

REM GENRE HardcoreREM DATE 2001REM DISCID E9110F10REM COMMENT "ExactAudioCopy v1.0b3"PERFORMER "Various Artists"TITLE "Hardcore Time - Fresh Meat"FILE "01. Rexantony - USA flash.wav" WAVE TRACK 01 AUDIO TITLE "USA flash" PERFORMER "Rexantony" INDEX 01 00:00:00FILE "02. DJ Rob & MC Joe - Hardbeat.wav" WAVE TRACK 02 AUDIO TITLE "Hardbeat" PERFORMER "DJ Rob & MC Joe" INDEX 01 00:00:00FILE "03. Allenator vs Headbanger - G-CORE.wav" WAVE TRACK 03 AUDIO TITLE "G-CORE" PERFORMER "Allenator vs Headbanger" INDEX 01 00:00:00FILE "04. Neophyte - Basstard,Asshole.wav" WAVE TRACK 04 AUDIO TITLE "Basstard/Asshole" PERFORMER "Neophyte" INDEX 01 00:00:00FILE "05. DJ Outblast vs DJ Wicked - Masters symphony.wav" WAVE TRACK 05 AUDIO TITLE "Masters symphony" PERFORMER "DJ Outblast vs DJ Wicked" INDEX 01 00:00:00FILE "06. Alienator vs Headbanger - Headbangin' beat.wav" WAVE TRACK 06 AUDIO TITLE "Headbangin' beat" PERFORMER "Alienator vs Headbanger" INDEX 01 00:00:00FILE "07. Tommyknocker - Volume on the dancefloor.wav" WAVE TRACK 07 AUDIO TITLE "Volume on the dancefloor" PERFORMER "Tommyknocker" INDEX 01 00:00:00FILE "08. The masochist - Hardcoor.wav" WAVE TRACK 08 AUDIO TITLE "Hardcoor" PERFORMER "The masochist" INDEX 01 00:00:00FILE "09. DJ Outblast - Hardcore time.wav" WAVE TRACK 09 AUDIO TITLE "Hardcore time" PERFORMER "DJ Outblast" INDEX 01 00:00:00FILE "10. Evil activities - World eclypse.wav" WAVE TRACK 10 AUDIO TITLE "World eclypse" PERFORMER "Evil activities" INDEX 01 00:00:00FILE "11. T-Wisted feat. Pino D'Ambini - Respect the cock.wav" WAVE TRACK 11 AUDIO TITLE "Respect the cock" PERFORMER "T-Wisted feat. Pino D'Ambini" INDEX 01 00:00:00FILE "12. The Stunned guys & DJ Paul - More than rough.wav" WAVE TRACK 12 AUDIO TITLE "More than rough" PERFORMER "The Stunned guys & DJ Paul" INDEX 01 00:00:00FILE "13. The Stunned guys & DJ Paul - Thrillseeka (Hardcreation remix).wav" WAVE TRACK 13 AUDIO TITLE "Thrillseeka (Hardcreation remix)" PERFORMER "The Stunned guys & DJ Paul" INDEX 01 00:00:00FILE "14. Bass-D & King Matthew - Resistance is futile.wav" WAVE TRACK 14 AUDIO TITLE "Resistance is futile" PERFORMER "Bass-D & King Matthew" INDEX 01 00:00:00FILE "15. Art of fighters - Artwork.wav" WAVE TRACK 15 AUDIO TITLE "Artwork" PERFORMER "Art of fighters" INDEX 01 00:00:00FILE "16. Da predator - 20000 Hardcore members.wav" WAVE TRACK 16 AUDIO TITLE "20000 Hardcore members" PERFORMER "Da predator" INDEX 01 00:00:00
Discogs

_________________
Показать сообщения:    

Текущее время: Сегодня 07:18

Часовой пояс: GMT



Вы не можете начинать темы
Вы не можете отвечать на сообщения
Вы не можете редактировать свои сообщения
Вы не можете удалять свои сообщения
Вы не можете голосовать в опросах
Вы не можете прикреплять файлы к сообщениям
Вы не можете скачивать файлы