Важное объявление!
У Нас Все раздачи мультитрекерные, при нуле пиров в релизах, можете смело вставать на закачку!
Статистика раздачи
Размер:     |    Зарегистрирован:     |    Скачан:     |   
Нет
 
     
 
 
Автор Сообщение

HUNTER

Стаж:
5 лет
Сообщений:
67947

Репутация: 101

[+] [-]
Вне форума [Профиль] [ЛС]

Sons Of Ilsa / Pulsingers Nacht
Жанр: Hardcore
Носитель: CDM
Страна-производитель диска (релиза): Germany
Год издания: 1995
Издатель (лейбл): Urban
Номер по каталогу: 579 045-2
Аудиокодек: FLAC (*.flac)
Тип рипа: image+.cue
Битрейт аудио: lossless
Продолжительность: 14:31
Источник (релизер): Рип с диска из собственной коллекции.
Наличие сканов в содержимом раздачи: нет
Треклист:
1 Pulsingers Nacht (Shoot By Raving Mix) 5:49
2 Pulsingers Nacht (Manson Family Mix) 5:20
3 Thanks 3:10

Лог создания рипа

Exact Audio Copy V1.0 beta 3 from 29. August 2011
EAC extraction logfile from 24. October 2014, 11:22
Sons Of Ilsa / Pulsingers Nacht
Used drive : PIONEER DVD-RW DVR-218L Adapter: 3 ID: 0
Read mode : SecureUtilize accurate stream : YesDefeat audio cache : YesMake use of C2 pointers : No
Read offset correction : 6Overread into Lead-In and Lead-Out : NoFill up missing offset samples with silence : YesDelete leading and trailing silent blocks : NoNull samples used in CRC calculations : YesUsed interface : Installed external ASPI interface
Used output format : User Defined EncoderSelected bitrate : 128 kBit/sQuality : HighAdd ID3 tag : NoCommand line compressor : C:\Program Files (x86)\Exact Audio Copy\Flac\flac.exeAdditional command line options : -V -8 %source%
TOC of the extracted CD
Track | Start | Length | Start sector | End sector --------------------------------------------------------- 1 | 0:00.32 | 5:52.18 | 32 | 26449 2 | 5:52.50 | 5:30.05 | 26450 | 51204 3 | 11:22.55 | 3:09.10 | 51205 | 65389
Range status and errors
Selected range
Filename D:\Новая папка\Sons Of Ilsa - Pulsingers Nacht.wav
Peak level 98.8 % Extraction speed 1.3 X Range quality 100.0 % Test CRC 9F455FDD Copy CRC 9F455FDD Copy OK
No errors occurred
AccurateRip summary
Track 1 accurately ripped (confidence 4) [E6E83FF4] (AR v1)Track 2 accurately ripped (confidence 4) [85BD8852] (AR v1)Track 3 accurately ripped (confidence 4) [055E383E] (AR v1)
All tracks accurately ripped
End of status report
==== Log checksum 970F3276E5259CD43F6CC1AC6F08A80FFA56D32532385B265D1CC7F8FD53662E ====
Discogs

_________________
Показать сообщения:    

Текущее время: Сегодня 14:51

Часовой пояс: GMT



Вы не можете начинать темы
Вы не можете отвечать на сообщения
Вы не можете редактировать свои сообщения
Вы не можете удалять свои сообщения
Вы не можете голосовать в опросах
Вы не можете прикреплять файлы к сообщениям
Вы не можете скачивать файлы