Важное объявление!
У Нас Все раздачи мультитрекерные, при нуле пиров в релизах, можете смело вставать на закачку!
 
Автор Сообщение

HUNTER

Стаж:
4 года 7 месяцев
Сообщений:
61508

Репутация: 101

[+] [-]
Вне форума [Профиль] [ЛС]

Hardcore Generation
Жанр: Hardcore
Носитель: CD
Год издания: 1997
Издатель (лейбл): MECADO
Номер по каталогу: MEC 10030
Аудиокодек: FLAC (*.flac)
Тип рипа: tracks+.cue
Битрейт аудио: lossless
Продолжительность: 01:13:30
Источник (релизер): what.cd
Наличие сканов в содержимом раздачи: да
Треклист:
01. De Mosselman - Mossels (Radio Edit) [03:38]
02. J.D.A. - Voel Je Die Bass [06:30]
03. Reef Teeffie - Klappus In Je Handjes [03:02]
04. Dark Raver & DJ Vince - Thunderground [05:09]
05. The Lawyer - Yo DJ (Buzz Fuzz Remix) [06:12]
06. Shadowlands Terrorists - Shadowlands Anthem [05:54]
07. Highlander - Get The Future Started [03:35]
08. Scott Brown - Hardcore Power [04:39]
09. The Stunned Guys - Beats Time [05:13]
10. The Alternative Creators - Sound Creation (DJ Isaac Remix) [04:52]
11. Dionysos - Daydream [03:24]
12. Thundergods From Asgard - To My X [04:54]
13. B-Rave Feat. T-Bear - Happy Rave (David's Song) (feat. T-Bear) [03:44]
14. Brotherhood - Crazy (Bass-D & King Matthew Remix) [05:02]
15. Rotterdam Terror Corps - Mega Rave [04:29]
16. Juggernaut - Ruffneck Rules Tha Art-Core Scene [03:07]

Лог создания рипа

Exact Audio Copy V1.0 beta 3 from 29. August 2011
EAC extraction logfile from 3. June 2012, 21:07
Various / Hardcore Generation
Used drive : HL-DT-STDVDRAM GSA-T10N Adapter: 0 ID: 0
Read mode : SecureUtilize accurate stream : YesDefeat audio cache : YesMake use of C2 pointers : No
Read offset correction : 667Overread into Lead-In and Lead-Out : NoFill up missing offset samples with silence : YesDelete leading and trailing silent blocks : NoNull samples used in CRC calculations : YesUsed interface : Native Win32 interface for Win NT & 2000Gap handling : Appended to previous track
Used output format : Internal WAV RoutinesSample format : 44.100 Hz; 16 Bit; Stereo
TOC of the extracted CD
Track | Start | Length | Start sector | End sector --------------------------------------------------------- 1 | 0:00.00 | 3:38.27 | 0 | 16376 2 | 3:38.27 | 6:30.33 | 16377 | 45659 3 | 10:08.60 | 3:02.17 | 45660 | 59326 4 | 13:11.02 | 5:09.20 | 59327 | 82521 5 | 18:20.22 | 6:12.32 | 82522 | 110453 6 | 24:32.54 | 5:54.58 | 110454 | 137061 7 | 30:27.37 | 3:35.38 | 137062 | 153224 8 | 34:03.00 | 4:39.32 | 153225 | 174181 9 | 38:42.32 | 5:13.20 | 174182 | 197676 10 | 43:55.52 | 4:52.28 | 197677 | 219604 11 | 48:48.05 | 3:24.17 | 219605 | 234921 12 | 52:12.22 | 4:54.33 | 234922 | 257004 13 | 57:06.55 | 3:44.12 | 257005 | 273816 14 | 60:50.67 | 5:02.20 | 273817 | 296486 15 | 65:53.12 | 4:29.30 | 296487 | 316691 16 | 70:22.42 | 3:07.35 | 316692 | 330751
Track 1
Filename L:\HARDCORE GENERATION (1997)[FLAC](Mecado MEC 10030)\01 - De Mosselman - Mossels (Radio Edit).wav
Pre-gap length 0:00:02.00
Peak level 97.9 % Extraction speed 2.9 X Track quality 100.0 % Test CRC 0F269EE8 Copy CRC 0F269EE8 Accurately ripped (confidence 1) [4806E3F3] (AR v1) Copy OK
Track 2
Filename L:\HARDCORE GENERATION (1997)[FLAC](Mecado MEC 10030)\02 - J.D.A. - Voel Je Die Bass.wav
Peak level 100.0 % Extraction speed 3.1 X Track quality 99.9 % Test CRC 27D6D6CA Copy CRC 27D6D6CA Accurately ripped (confidence 1) [68FB0985] (AR v1) Copy OK
Track 3
Filename L:\HARDCORE GENERATION (1997)[FLAC](Mecado MEC 10030)\03 - Reef Teeffie - Klappus In Je Handjes.wav
Peak level 91.4 % Extraction speed 2.7 X Track quality 99.9 % Test CRC 8C19EC90 Copy CRC 8C19EC90 Accurately ripped (confidence 1) [0C47533B] (AR v1) Copy OK
Track 4
Filename L:\HARDCORE GENERATION (1997)[FLAC](Mecado MEC 10030)\04 - Dark Raver & DJ Vince - Thunderground.wav
Peak level 100.0 % Extraction speed 3.9 X Track quality 100.0 % Test CRC 4B6EA33D Copy CRC 4B6EA33D Accurately ripped (confidence 1) [77CE5246] (AR v1) Copy OK
Track 5
Filename L:\HARDCORE GENERATION (1997)[FLAC](Mecado MEC 10030)\05 - Lawyer, The (2) - Yo DJ (Buzz Fuzz Remix).wav
Pre-gap length 0:00:01.37
Peak level 100.0 % Extraction speed 4.3 X Track quality 100.0 % Test CRC F2422D06 Copy CRC F2422D06 Accurately ripped (confidence 1) [AA041753] (AR v1) Copy OK
Track 6
Filename L:\HARDCORE GENERATION (1997)[FLAC](Mecado MEC 10030)\06 - Shadowlands Terrorists - Shadowlands Anthem.wav
Pre-gap length 0:00:01.09
Peak level 96.9 % Extraction speed 4.5 X Track quality 100.0 % Test CRC 2841065B Copy CRC 2841065B Accurately ripped (confidence 1) [52020B98] (AR v1) Copy OK
Track 7
Filename L:\HARDCORE GENERATION (1997)[FLAC](Mecado MEC 10030)\07 - Highlander - Get The Future Started.wav
Peak level 100.0 % Extraction speed 4.5 X Track quality 100.0 % Test CRC C3389D16 Copy CRC C3389D16 Accurately ripped (confidence 1) [B93449B3] (AR v1) Copy OK
Track 8
Filename L:\HARDCORE GENERATION (1997)[FLAC](Mecado MEC 10030)\08 - Scott Brown - Hardcore Power.wav
Peak level 94.4 % Extraction speed 4.8 X Track quality 100.0 % Test CRC D70ACC70 Copy CRC D70ACC70 Accurately ripped (confidence 1) [2AE738F7] (AR v1) Copy OK
Track 9
Filename L:\HARDCORE GENERATION (1997)[FLAC](Mecado MEC 10030)\09 - Stunned Guys, The - Beats Time.wav
Peak level 94.9 % Extraction speed 5.1 X Track quality 100.0 % Test CRC 213786D4 Copy CRC 213786D4 Accurately ripped (confidence 1) [7F4C7CF1] (AR v1) Copy OK
Track 10
Filename L:\HARDCORE GENERATION (1997)[FLAC](Mecado MEC 10030)\10 - Alternative Creators, The - Sound Creation (DJ Isaac Remix).wav
Peak level 97.7 % Extraction speed 5.2 X Track quality 100.0 % Test CRC C035217E Copy CRC C035217E Accurately ripped (confidence 1) [9E281256] (AR v1) Copy OK
Track 11
Filename L:\HARDCORE GENERATION (1997)[FLAC](Mecado MEC 10030)\11 - Dionysos - Daydream.wav
Pre-gap length 0:00:01.00
Peak level 94.4 % Extraction speed 5.2 X Track quality 100.0 % Test CRC B7B6345B Copy CRC B7B6345B Accurately ripped (confidence 1) [D42C1A10] (AR v1) Copy OK
Track 12
Filename L:\HARDCORE GENERATION (1997)[FLAC](Mecado MEC 10030)\12 - Thundergods From Asgard - To My X.wav
Peak level 91.8 % Extraction speed 4.8 X Track quality 99.9 % Test CRC A2FE90B6 Copy CRC A2FE90B6 Accurately ripped (confidence 1) [0D2D419A] (AR v1) Copy OK
Track 13
Filename L:\HARDCORE GENERATION (1997)[FLAC](Mecado MEC 10030)\13 - B-Rave Feat. T-Bear - Happy Rave (David's Song).wav
Peak level 98.8 % Extraction speed 5.6 X Track quality 100.0 % Test CRC 3947B018 Copy CRC 3947B018 Accurately ripped (confidence 1) [FBA2CC3E] (AR v1) Copy OK
Track 14
Filename L:\HARDCORE GENERATION (1997)[FLAC](Mecado MEC 10030)\14 - Brotherhood - Crazy (Bass-D & King Matthew Remix).wav
Peak level 94.2 % Extraction speed 5.9 X Track quality 100.0 % Test CRC EED642CE Copy CRC EED642CE Accurately ripped (confidence 1) [2DF2C51C] (AR v1) Copy OK
Track 15
Filename L:\HARDCORE GENERATION (1997)[FLAC](Mecado MEC 10030)\15 - Rotterdam Terror Corps - Megarave.wav
Peak level 96.6 % Extraction speed 6.0 X Track quality 100.0 % Test CRC DE3C4B21 Copy CRC DE3C4B21 Accurately ripped (confidence 1) [527B3632] (AR v1) Copy OK
Track 16
Filename L:\HARDCORE GENERATION (1997)[FLAC](Mecado MEC 10030)\16 - Juggernaut - Ruffneck Rules Da Artcore Scene.wav
Pre-gap length 0:00:01.07
Peak level 98.8 % Extraction speed 5.7 X Track quality 100.0 % Test CRC 7CD20E58 Copy CRC 7CD20E58 Accurately ripped (confidence 1) [09C94B1E] (AR v1) Copy OK
All tracks accurately ripped
No errors occurred
End of status report
---- CUETools DB Plugin V2.1.3
[CTDB TOCID: haZCxCwGWD3fX_jcv4KUSj0_fms-] disk not present in database, Submit result: haZCxCwGWD3fX_jcv4KUSj0_fms- has been uploaded
==== Log checksum ABDD00B55CFC886AD531A9028D32C8090BA4420ACF3BFC4A1A6914CE97CD65DC ====

Содержание индексной карты (.CUE)

REM GENRE TechnoREM DATE 1997REM DISCID CC113A10REM COMMENT "ExactAudioCopy v1.0b3"PERFORMER "Various"TITLE "Hardcore Generation"FILE "01 - De Mosselman - Mossels (Radio Edit).wav" WAVE TRACK 01 AUDIO TITLE "Mossels (Radio Edit)" PERFORMER "De Mosselman" INDEX 01 00:00:00FILE "02 - J.D.A. - Voel Je Die Bass.wav" WAVE TRACK 02 AUDIO TITLE "Voel Je Die Bass" PERFORMER "J.D.A." INDEX 01 00:00:00FILE "03 - Reef Teeffie - Klappus In Je Handjes.wav" WAVE TRACK 03 AUDIO TITLE "Klappus In Je Handjes" PERFORMER "Reef Teeffie" INDEX 01 00:00:00FILE "04 - Dark Raver & DJ Vince - Thunderground.wav" WAVE TRACK 04 AUDIO TITLE "Thunderground" PERFORMER "Dark Raver & DJ Vince" INDEX 01 00:00:00 TRACK 05 AUDIO TITLE "Yo DJ (Buzz Fuzz Remix)" PERFORMER "Lawyer, The (2)" INDEX 00 05:07:58FILE "05 - Lawyer, The (2) - Yo DJ (Buzz Fuzz Remix).wav" WAVE INDEX 01 00:00:00 TRACK 06 AUDIO TITLE "Shadowlands Anthem" PERFORMER "Shadowlands Terrorists" INDEX 00 06:11:23FILE "06 - Shadowlands Terrorists - Shadowlands Anthem.wav" WAVE INDEX 01 00:00:00FILE "07 - Highlander - Get The Future Started.wav" WAVE TRACK 07 AUDIO TITLE "Get The Future Started" PERFORMER "Highlander" INDEX 01 00:00:00FILE "08 - Scott Brown - Hardcore Power.wav" WAVE TRACK 08 AUDIO TITLE "Hardcore Power" PERFORMER "Scott Brown" INDEX 01 00:00:00FILE "09 - Stunned Guys, The - Beats Time.wav" WAVE TRACK 09 AUDIO TITLE "Beats Time" PERFORMER "Stunned Guys, The" INDEX 01 00:00:00FILE "10 - Alternative Creators, The - Sound Creation (DJ Isaac Remix).wav" WAVE TRACK 10 AUDIO TITLE "Sound Creation (DJ Isaac Remix)" PERFORMER "Alternative Creators, The" INDEX 01 00:00:00 TRACK 11 AUDIO TITLE "Daydream" PERFORMER "Dionysos" INDEX 00 04:51:28FILE "11 - Dionysos - Daydream.wav" WAVE INDEX 01 00:00:00FILE "12 - Thundergods From Asgard - To My X.wav" WAVE TRACK 12 AUDIO TITLE "To My X" PERFORMER "Thundergods From Asgard" INDEX 01 00:00:00FILE "13 - B-Rave Feat. T-Bear - Happy Rave (David's Song).wav" WAVE TRACK 13 AUDIO TITLE "Happy Rave (David's Song)" PERFORMER "B-Rave Feat. T-Bear" INDEX 01 00:00:00FILE "14 - Brotherhood - Crazy (Bass-D & King Matthew Remix).wav" WAVE TRACK 14 AUDIO TITLE "Crazy (Bass-D & King Matthew Remix)" PERFORMER "Brotherhood" INDEX 01 00:00:00FILE "15 - Rotterdam Terror Corps - Megarave.wav" WAVE TRACK 15 AUDIO TITLE "Megarave" PERFORMER "Rotterdam Terror Corps" INDEX 01 00:00:00 TRACK 16 AUDIO TITLE "Ruffneck Rules Da Artcore Scene" PERFORMER "Juggernaut" INDEX 00 04:28:23FILE "16 - Juggernaut - Ruffneck Rules Da Artcore Scene.wav" WAVE INDEX 01 00:00:00

_________________
Показать сообщения:    

Текущее время: Сегодня 08:40

Часовой пояс: GMT



Вы не можете начинать темы
Вы не можете отвечать на сообщения
Вы не можете редактировать свои сообщения
Вы не можете удалять свои сообщения
Вы не можете голосовать в опросах
Вы не можете прикреплять файлы к сообщениям
Вы не можете скачивать файлы
Наши партнеры: интернет магазин Ивановского трикотажа textilla.ru