Важное объявление!
У Нас Все раздачи мультитрекерные, при нуле пиров в релизах, можете смело вставать на закачку!
Статистика раздачи
Размер:     |    Зарегистрирован:     |    Скачан:     |   
Нет
 
     
 
 
Автор Сообщение

HUNTER

Стаж:
5 лет
Сообщений:
68033

Репутация: 101

[+] [-]
Вне форума [Профиль] [ЛС]

Fucking Hardcore No 7
Жанр: Hardcore
Носитель: CD
Год издания: 1997
Издатель (лейбл): Mokum Records
Номер по каталогу: DB 4779 2
Аудиокодек: FLAC (*.flac)
Тип рипа: tracks+.cue
Битрейт аудио: lossless
Продолжительность: 01:15:44
Источник (релизер): what.cd
Наличие сканов в содержимом раздачи: да
Треклист:
01. Chosen Few Featuring MC Lunatic - Fucking Hardcore #7 [01:09]
02. Outside Agency, The - We Move As One [04:38]
03. Wicked XXX - True Born Junglist [04:24]
04. Annihilator - Annihilator [04:34]
05. Walter One - Two Times [04:19]
06. Kamikaze Suicide - Yakuzacore [05:02]
07. DJ Jappo & DJ Lancinhouse - XTR Experiment [04:43]
08. Chosen Few - I Show Trickz [03:54]
09. Annihilator - Get Busy With The Beats [04:43]
10. Tellurian - Block Fucking Beats [04:11]
11. Wicked XXX - Out Of Control [06:31]
12. Outside Agency - Witchcraft [04:54]
13. Walter One - Oh My God [04:17]
14. Fela - Truth Or Death [04:46]
15. Conspiracide - Dawn [05:38]
16. Walter One - Are You Ready [04:51]
17. DJ Jappo & DJ Lancinhouse - Fukem Outro [03:03]

Лог создания рипа

Exact Audio Copy V1.0 beta 3 from 29. August 2011
EAC extraction logfile from 16. September 2012, 20:06
Various / Fucking Hardcore No 7
Used drive : HL-DT-STDVDRAM GSA-T10N Adapter: 0 ID: 0
Read mode : SecureUtilize accurate stream : YesDefeat audio cache : YesMake use of C2 pointers : No
Read offset correction : 667Overread into Lead-In and Lead-Out : NoFill up missing offset samples with silence : YesDelete leading and trailing silent blocks : NoNull samples used in CRC calculations : YesUsed interface : Native Win32 interface for Win NT & 2000Gap handling : Appended to previous track
Used output format : Internal WAV RoutinesSample format : 44.100 Hz; 16 Bit; Stereo
TOC of the extracted CD
Track | Start | Length | Start sector | End sector --------------------------------------------------------- 1 | 0:00.00 | 1:09.50 | 0 | 5224 2 | 1:09.50 | 4:38.37 | 5225 | 26111 3 | 5:48.12 | 4:24.40 | 26112 | 45951 4 | 10:12.52 | 4:34.03 | 45952 | 66504 5 | 14:46.55 | 4:19.17 | 66505 | 85946 6 | 19:05.72 | 5:02.18 | 85947 | 108614 7 | 24:08.15 | 4:43.02 | 108615 | 129841 8 | 28:51.17 | 3:54.68 | 129842 | 147459 9 | 32:46.10 | 4:43.65 | 147460 | 168749 10 | 37:30.00 | 4:11.65 | 168750 | 187639 11 | 41:41.65 | 6:31.07 | 187640 | 216971 12 | 48:12.72 | 4:54.15 | 216972 | 239036 13 | 53:07.12 | 4:17.28 | 239037 | 258339 14 | 57:24.40 | 4:46.57 | 258340 | 279846 15 | 62:11.22 | 5:38.10 | 279847 | 305206 16 | 67:49.32 | 4:51.20 | 305207 | 327051 17 | 72:40.52 | 3:03.38 | 327052 | 340814
Track 1
Filename D:\Various Artists - Fucking Hardcore Pt7 (1997) [FLAC] (Mokum Records DB 4779 2) [VelvetUndergroundForum.com]\01 - Chosen Few Featuring MC Lunatic - Fucking Hardcore #7.wav
Pre-gap length 0:00:02.00
Peak level 97.9 % Extraction speed 0.6 X Track quality 99.8 % Test CRC 64961F1A Copy CRC 64961F1A Track not present in AccurateRip database Copy OK
Track 2
Filename D:\Various Artists - Fucking Hardcore Pt7 (1997) [FLAC] (Mokum Records DB 4779 2) [VelvetUndergroundForum.com]\02 - Outside Agency, The - We Move As One.wav
Peak level 99.0 % Extraction speed 1.2 X Track quality 99.9 % Test CRC AD06BC89 Copy CRC AD06BC89 Track not present in AccurateRip database Copy OK
Track 3
Filename D:\Various Artists - Fucking Hardcore Pt7 (1997) [FLAC] (Mokum Records DB 4779 2) [VelvetUndergroundForum.com]\03 - Wicked XXX - True Born Junglist.wav
Peak level 100.0 % Extraction speed 1.3 X Track quality 100.0 % Test CRC E440DB7A Copy CRC E440DB7A Track not present in AccurateRip database Copy OK
Track 4
Filename D:\Various Artists - Fucking Hardcore Pt7 (1997) [FLAC] (Mokum Records DB 4779 2) [VelvetUndergroundForum.com]\04 - Annihilator - Annihilator.wav
Peak level 99.5 % Extraction speed 0.6 X Track quality 99.7 % Test CRC 7666CDCF Copy CRC 7666CDCF Track not present in AccurateRip database Copy OK
Track 5
Filename D:\Various Artists - Fucking Hardcore Pt7 (1997) [FLAC] (Mokum Records DB 4779 2) [VelvetUndergroundForum.com]\05 - Walter One - Two Times.wav
Peak level 99.9 % Extraction speed 1.4 X Track quality 99.9 % Test CRC 60954707 Copy CRC 60954707 Track not present in AccurateRip database Copy OK
Track 6
Filename D:\Various Artists - Fucking Hardcore Pt7 (1997) [FLAC] (Mokum Records DB 4779 2) [VelvetUndergroundForum.com]\06 - Kamikaze Suicide - Yakuzacore.wav
Peak level 100.0 % Extraction speed 1.0 X Track quality 99.8 % Test CRC CF2BBEB6 Copy CRC CF2BBEB6 Track not present in AccurateRip database Copy OK
Track 7
Filename D:\Various Artists - Fucking Hardcore Pt7 (1997) [FLAC] (Mokum Records DB 4779 2) [VelvetUndergroundForum.com]\07 - DJ Jappo & DJ Lancinhouse - XTR Experiment.wav
Peak level 97.5 % Extraction speed 1.9 X Track quality 100.0 % Test CRC 769574FC Copy CRC 769574FC Track not present in AccurateRip database Copy OK
Track 8
Filename D:\Various Artists - Fucking Hardcore Pt7 (1997) [FLAC] (Mokum Records DB 4779 2) [VelvetUndergroundForum.com]\08 - Chosen Few - I Show Trickz.wav
Peak level 99.1 % Extraction speed 1.9 X Track quality 100.0 % Test CRC F3E24E63 Copy CRC F3E24E63 Track not present in AccurateRip database Copy OK
Track 9
Filename D:\Various Artists - Fucking Hardcore Pt7 (1997) [FLAC] (Mokum Records DB 4779 2) [VelvetUndergroundForum.com]\09 - Annihilator - Get Busy With The Beats.wav
Peak level 99.2 % Extraction speed 1.9 X Track quality 99.9 % Test CRC 1EDFB791 Copy CRC 1EDFB791 Track not present in AccurateRip database Copy OK
Track 10
Filename D:\Various Artists - Fucking Hardcore Pt7 (1997) [FLAC] (Mokum Records DB 4779 2) [VelvetUndergroundForum.com]\10 - Tellurian - Block Fucking Beats.wav
Peak level 98.7 % Extraction speed 2.1 X Track quality 100.0 % Test CRC 80E91D82 Copy CRC 80E91D82 Track not present in AccurateRip database Copy OK
Track 11
Filename D:\Various Artists - Fucking Hardcore Pt7 (1997) [FLAC] (Mokum Records DB 4779 2) [VelvetUndergroundForum.com]\11 - Wicked XXX - Out Of Control.wav
Peak level 98.0 % Extraction speed 2.2 X Track quality 99.9 % Test CRC 5C3C45CB Copy CRC 5C3C45CB Track not present in AccurateRip database Copy OK
Track 12
Filename D:\Various Artists - Fucking Hardcore Pt7 (1997) [FLAC] (Mokum Records DB 4779 2) [VelvetUndergroundForum.com]\12 - Outside Agency - Witchcraft.wav
Peak level 96.5 % Extraction speed 2.4 X Track quality 100.0 % Test CRC 67A41019 Copy CRC 67A41019 Track not present in AccurateRip database Copy OK
Track 13
Filename D:\Various Artists - Fucking Hardcore Pt7 (1997) [FLAC] (Mokum Records DB 4779 2) [VelvetUndergroundForum.com]\13 - Walter One - Oh My God.wav
Peak level 99.7 % Extraction speed 2.4 X Track quality 100.0 % Test CRC F554A746 Copy CRC F554A746 Track not present in AccurateRip database Copy OK
Track 14
Filename D:\Various Artists - Fucking Hardcore Pt7 (1997) [FLAC] (Mokum Records DB 4779 2) [VelvetUndergroundForum.com]\14 - Fela - Truth Or Death.wav
Peak level 98.6 % Extraction speed 2.2 X Track quality 99.9 % Test CRC 681ABFB5 Copy CRC 681ABFB5 Track not present in AccurateRip database Copy OK
Track 15
Filename D:\Various Artists - Fucking Hardcore Pt7 (1997) [FLAC] (Mokum Records DB 4779 2) [VelvetUndergroundForum.com]\15 - Conspiracide - Dawn.wav
Peak level 98.3 % Extraction speed 2.7 X Track quality 100.0 % Test CRC F86D952D Copy CRC F86D952D Track not present in AccurateRip database Copy OK
Track 16
Filename D:\Various Artists - Fucking Hardcore Pt7 (1997) [FLAC] (Mokum Records DB 4779 2) [VelvetUndergroundForum.com]\16 - Walter One - Are You Ready.wav
Peak level 100.0 % Extraction speed 2.7 X Track quality 100.0 % Test CRC BEF1A696 Copy CRC BEF1A696 Track not present in AccurateRip database Copy OK
Track 17
Filename D:\Various Artists - Fucking Hardcore Pt7 (1997) [FLAC] (Mokum Records DB 4779 2) [VelvetUndergroundForum.com]\17 - DJ Jappo & DJ Lancinhouse - Fukem Outro.wav
Peak level 97.5 % Extraction speed 2.6 X Track quality 100.0 % Test CRC B4333DF0 Copy CRC B4333DF0 Track not present in AccurateRip database Copy OK
None of the tracks are present in the AccurateRip database
No errors occurred
End of status report
---- CUETools DB Plugin V2.1.3
[CTDB TOCID: VnsKiR9KcLfjPswmyKYrHhyuJ64-] found, Submit result: VnsKiR9KcLfjPswmyKYrHhyuJ64- has been confirmed[80f1a507] (1/1) Accurately ripped
==== Log checksum 04C04BB13E2A216E5CC0E208999F04F440F102CEAD9523DE8ACA89AB7A59D838 ====

Содержание индексной карты (.CUE)

REM GENRE GabberREM DATE 1997REM DISCID EF11C011REM COMMENT "ExactAudioCopy v1.0b3"PERFORMER "Various"TITLE "Fucking Hardcore No 7"FILE "01 - Chosen Few Featuring MC Lunatic - Fucking Hardcore #7.wav" WAVE TRACK 01 AUDIO TITLE "Fucking Hardcore #7" PERFORMER "Chosen Few Featuring MC Lunatic" INDEX 01 00:00:00FILE "02 - Outside Agency, The - We Move As One.wav" WAVE TRACK 02 AUDIO TITLE "We Move As One" PERFORMER "Outside Agency, The" INDEX 01 00:00:00FILE "03 - Wicked XXX - True Born Junglist.wav" WAVE TRACK 03 AUDIO TITLE "True Born Junglist" PERFORMER "Wicked XXX" INDEX 01 00:00:00FILE "04 - Annihilator - Annihilator.wav" WAVE TRACK 04 AUDIO TITLE "Annihilator" PERFORMER "Annihilator" INDEX 01 00:00:00FILE "05 - Walter One - Two Times.wav" WAVE TRACK 05 AUDIO TITLE "Two Times" PERFORMER "Walter One" INDEX 01 00:00:00FILE "06 - Kamikaze Suicide - Yakuzacore.wav" WAVE TRACK 06 AUDIO TITLE "Yakuzacore" PERFORMER "Kamikaze Suicide" INDEX 01 00:00:00FILE "07 - DJ Jappo & DJ Lancinhouse - XTR Experiment.wav" WAVE TRACK 07 AUDIO TITLE "XTR Experiment" PERFORMER "DJ Jappo & DJ Lancinhouse" INDEX 01 00:00:00FILE "08 - Chosen Few - I Show Trickz.wav" WAVE TRACK 08 AUDIO TITLE "I Show Trickz" PERFORMER "Chosen Few" INDEX 01 00:00:00FILE "09 - Annihilator - Get Busy With The Beats.wav" WAVE TRACK 09 AUDIO TITLE "Get Busy With The Beats" PERFORMER "Annihilator" INDEX 01 00:00:00FILE "10 - Tellurian - Block Fucking Beats.wav" WAVE TRACK 10 AUDIO TITLE "Block Fucking Beats" PERFORMER "Tellurian" INDEX 01 00:00:00FILE "11 - Wicked XXX - Out Of Control.wav" WAVE TRACK 11 AUDIO TITLE "Out Of Control" PERFORMER "Wicked XXX" INDEX 01 00:00:00FILE "12 - Outside Agency - Witchcraft.wav" WAVE TRACK 12 AUDIO TITLE "Witchcraft" PERFORMER "Outside Agency" INDEX 01 00:00:00FILE "13 - Walter One - Oh My God.wav" WAVE TRACK 13 AUDIO TITLE "Oh My God" PERFORMER "Walter One" INDEX 01 00:00:00FILE "14 - Fela - Truth Or Death.wav" WAVE TRACK 14 AUDIO TITLE "Truth Or Death" PERFORMER "Fela" INDEX 01 00:00:00FILE "15 - Conspiracide - Dawn.wav" WAVE TRACK 15 AUDIO TITLE "Dawn" PERFORMER "Conspiracide" INDEX 01 00:00:00FILE "16 - Walter One - Are You Ready.wav" WAVE TRACK 16 AUDIO TITLE "Are You Ready?" PERFORMER "Walter One" INDEX 01 00:00:00FILE "17 - DJ Jappo & DJ Lancinhouse - Fukem Outro.wav" WAVE TRACK 17 AUDIO TITLE "Fukem Outro" PERFORMER "DJ Jappo & DJ Lancinhouse" INDEX 01 00:00:00

_________________
Показать сообщения:    

Текущее время: Сегодня 22:41

Часовой пояс: GMT



Вы не можете начинать темы
Вы не можете отвечать на сообщения
Вы не можете редактировать свои сообщения
Вы не можете удалять свои сообщения
Вы не можете голосовать в опросах
Вы не можете прикреплять файлы к сообщениям
Вы не можете скачивать файлы