Ивановский Торрент трекер
Яндекс.Погода
 

[Цитировать]
HUNTER

Hardcore & Acid
-Жанр: Hardcore, Acid, Gabber, Techno
Год выпуска диска: 2003
Производитель диска: ZYX Music \ Germany
Аудио кодек: FLAC
Тип рипа: tracks+.cue
Битрейт аудио: lossless
Продолжительность: 03h 32m 03s
Источник: собственный рип-CD ONE
01 - Acid Warrior - Acid Bites [07:03]
02 - Chipset - Psy Cosmos [05:01]
03 - Rob Acid - Storm (Selection Remix) [04:44]
04 - Church Window - Machine Head [07:01]
05 - Classic Action - Into The Glue [07:02]
06 - Department Of Dance - Systemlord [06:09]
07 - Gyromant - Mops [05:55]
08 - Gnork - Mythos [08:02]
09 - Olaf Apholz - Unterwegs [08:08]
10 - Pete Atkins - Foolin Around [07:13]
11 - Acid Warrior - Classique [09:27]-CD TWO
01 - The Shapeshifter - Puzzy Thing [04:46]
02 - Napalm - B1 [02:37]
03 - Members of Shockwave - Everybody [05:36]
04 - The Speed Freak - Murder The World [02:45]
05 - Bazooka - Die 303 Maschine [05:06]
06 - B.C.Kid - Bad Dreams [04:51]
07 - Biochip C. - So What [04:39]
08 - Cyperchrist - Belief [03:06]
09 - DJ Fistfuck - Little Box [04:17]
10 - E-DE Cologne - Kill For Jesus [04:37]
11 - Fazer - When I'am Gone [04:49]
12 - Psyche Out - Take That, Mf [04:25]
13 - 909 Abuse - Fucktrance [04:41]
14 - Napalm - Napalm [04:44]
15 - Random Rampage - Viva [04:16]-CD THREE
01 - Sorcerer - Summer [02:50]
02 - The Berzerker - B.R.A.I.N.D.E.A.D. [03:53]
03 - Search & Destroy - Destroy, My Robots [06:16]
04 - Red Bullfighter - Rapido Infernal [04:55]
05 - S.C.U.M. - Liquidation Now [05:33]
06 - The Blade Runner - Bumb-Rush [03:38]
07 - Seveso - Abc-Alarm [04:28]
08 - The Noize Junkie - Nighttrain [04:56]
09 - Somatic Responses - Fury's Theme [03:38]
10 - Sinoc Overkill - Why Don't You Die [05:02]
11 - The Spapeshifter - The King [04:39]
12 - Violator - A Sick World [05:20]
13 - Wendy Milan - Fuckin' Biaaatch [03:37]
14 - The Speed Freak - The Session [04:52]
15 - Napalm - The Dawn Of A New Error [07:05]
- -

Logs & CUE's

Log EAC CD 1
Exact Audio Copy V1.0 beta 4 from 7. December 2014
EAC extraction logfile from 6. March 2015, 21:15
Various / Hardcore & Acid (Disc 1)
Used drive : ASUS SDRW-08D2S-U Adapter: 1 ID: 0
Read mode : SecureUtilize accurate stream : YesDefeat audio cache : YesMake use of C2 pointers : No
Read offset correction : 6Overread into Lead-In and Lead-Out : NoFill up missing offset samples with silence : YesDelete leading and trailing silent blocks : NoNull samples used in CRC calculations : YesUsed interface : Native Win32 interface for Win NT & 2000Gap handling : Appended to previous track
Used output format : User Defined EncoderSelected bitrate : 128 kBit/sQuality : HighAdd ID3 tag : NoCommand line compressor : C:\flac-1.3.0-x64-icl\flac.exeAdditional command line options : -8 -V -T "ARTIST=%artist%" -T "TITLE=%title%" -T "ALBUM=%albumtitle%" -T "DATE=%year%" -T "TRACKNUMBER=%tracknr%" -T "GENRE=%genre%" -T "COMMENT=ripped by Andy aka yetiisyou special for Rutracker.org" %source%
TOC of the extracted CD
Track | Start | Length | Start sector | End sector --------------------------------------------------------- 1 | 0:00.00 | 7:03.44 | 0 | 31768 2 | 7:03.44 | 5:01.63 | 31769 | 54406 3 | 12:05.32 | 4:44.16 | 54407 | 75722 4 | 16:49.48 | 7:01.10 | 75723 | 107307 5 | 23:50.58 | 7:02.04 | 107308 | 138961 6 | 30:52.62 | 6:09.18 | 138962 | 166654 7 | 37:02.05 | 5:55.10 | 166655 | 193289 8 | 42:57.15 | 8:02.35 | 193290 | 229474 9 | 50:59.50 | 8:08.34 | 229475 | 266108 10 | 59:08.09 | 7:13.33 | 266109 | 298616 11 | 66:21.42 | 9:27.33 | 298617 | 341174
Track 1
Filename E:\!Ripped by Andy aka yetiisyou\VA - Hardcore & Acid [BOX 7763-2] [2003]\Disc 1\01. Acid Warrior - Acid Bites.wav
Pre-gap length 0:00:02.00
Peak level 99.9 % Extraction speed 3.2 X Track quality 100.0 % Test CRC D4D0ECA4 Copy CRC D4D0ECA4 Accurately ripped (confidence 2) [F4C18082] (AR v1) Copy OK
Track 2
Filename E:\!Ripped by Andy aka yetiisyou\VA - Hardcore & Acid [BOX 7763-2] [2003]\Disc 1\02. Chipset - Psy Cosmos.wav
Peak level 100.0 % Extraction speed 3.5 X Track quality 100.0 % Test CRC 0FC79B5A Copy CRC 0FC79B5A Accurately ripped (confidence 2) [31EB0E77] (AR v1) Copy OK
Track 3
Filename E:\!Ripped by Andy aka yetiisyou\VA - Hardcore & Acid [BOX 7763-2] [2003]\Disc 1\03. Rob Acid - Storm (Selection Remix).wav
Peak level 100.0 % Extraction speed 3.4 X Track quality 99.9 % Test CRC 5C8E36FC Copy CRC 5C8E36FC Accurately ripped (confidence 2) [E87A0596] (AR v1) Copy OK
Track 4
Filename E:\!Ripped by Andy aka yetiisyou\VA - Hardcore & Acid [BOX 7763-2] [2003]\Disc 1\04. Church Window - Machine Head.wav
Peak level 100.0 % Extraction speed 4.2 X Track quality 100.0 % Test CRC 11A0963D Copy CRC 11A0963D Accurately ripped (confidence 2) [CC135390] (AR v1) Copy OK
Track 5
Filename E:\!Ripped by Andy aka yetiisyou\VA - Hardcore & Acid [BOX 7763-2] [2003]\Disc 1\05. Classic Action - Into The Glue.wav
Peak level 100.0 % Extraction speed 4.6 X Track quality 100.0 % Test CRC 5D94C0BE Copy CRC 5D94C0BE Accurately ripped (confidence 2) [813C3A01] (AR v1) Copy OK
Track 6
Filename E:\!Ripped by Andy aka yetiisyou\VA - Hardcore & Acid [BOX 7763-2] [2003]\Disc 1\06. Department Of Dance - Systemlord.wav
Peak level 99.9 % Extraction speed 4.9 X Track quality 100.0 % Test CRC 12DE77ED Copy CRC 12DE77ED Accurately ripped (confidence 2) [38C69CDB] (AR v1) Copy OK
Track 7
Filename E:\!Ripped by Andy aka yetiisyou\VA - Hardcore & Acid [BOX 7763-2] [2003]\Disc 1\07. Der Gyromant - Mops.wav
Peak level 100.0 % Extraction speed 5.0 X Track quality 100.0 % Test CRC BB976B09 Copy CRC BB976B09 Accurately ripped (confidence 2) [4F5E327E] (AR v1) Copy OK
Track 8
Filename E:\!Ripped by Andy aka yetiisyou\VA - Hardcore & Acid [BOX 7763-2] [2003]\Disc 1\08. Gnork - Mythos.wav
Peak level 100.0 % Extraction speed 5.5 X Track quality 100.0 % Test CRC 5C93E38C Copy CRC 5C93E38C Accurately ripped (confidence 2) [D87C0AA8] (AR v1) Copy OK
Track 9
Filename E:\!Ripped by Andy aka yetiisyou\VA - Hardcore & Acid [BOX 7763-2] [2003]\Disc 1\09. Olaf Apholz - Unterwegs.wav
Peak level 100.0 % Extraction speed 5.8 X Track quality 100.0 % Test CRC 4568EAE5 Copy CRC 4568EAE5 Accurately ripped (confidence 2) [6F91355F] (AR v1) Copy OK
Track 10
Filename E:\!Ripped by Andy aka yetiisyou\VA - Hardcore & Acid [BOX 7763-2] [2003]\Disc 1\10. Pete Atkins - Foolin Around.wav
Peak level 100.0 % Extraction speed 6.1 X Track quality 100.0 % Test CRC 82B03817 Copy CRC 82B03817 Accurately ripped (confidence 2) [ED3CFDBA] (AR v1) Copy OK
Track 11
Filename E:\!Ripped by Andy aka yetiisyou\VA - Hardcore & Acid [BOX 7763-2] [2003]\Disc 1\11. Acid Warrior - Classique.wav
Peak level 100.0 % Extraction speed 2.8 X Track quality 100.0 % Test CRC 52DF8FB1 Copy CRC 52DF8FB1 Accurately ripped (confidence 2) [83DD7238] (AR v1) Copy OK
All tracks accurately ripped
No errors occurred
End of status report
---- CUETools DB Plugin V2.1.4
[CTDB TOCID: Tns6KJkWd8tP29.bCZcGaLwWFMc-] foundSubmit result: Tns6KJkWd8tP29.bCZcGaLwWFMc- has been confirmedTrack | CTDB Status 1 | (1/1) Accurately ripped 2 | (1/1) Accurately ripped 3 | (1/1) Accurately ripped 4 | (1/1) Accurately ripped 5 | (1/1) Accurately ripped 6 | (1/1) Accurately ripped 7 | (1/1) Accurately ripped 8 | (1/1) Accurately ripped 9 | (1/1) Accurately ripped 10 | (1/1) Accurately ripped 11 | (1/1) Accurately ripped
==== Log checksum 717079CB69F96F651B4D035D9F6F0679230156C2E7FF11D83D5ABDAF5C39A96B ====

CUE

REM DATE 2003REM DISCID 8B11C50BREM COMMENT "ExactAudioCopy v1.0b4"PERFORMER "Various"TITLE "Hardcore & Acid (Disc 1)"FILE "01. Acid Warrior - Acid Bites.wav" WAVE TRACK 01 AUDIO TITLE "Acid Bites" PERFORMER "Acid Warrior" INDEX 01 00:00:00FILE "02. Chipset - Psy Cosmos.wav" WAVE TRACK 02 AUDIO TITLE "Psy Cosmos" PERFORMER "Chipset" INDEX 01 00:00:00FILE "03. Rob Acid - Storm (Selection Remix).wav" WAVE TRACK 03 AUDIO TITLE "Storm (Selection Remix)" PERFORMER "Rob Acid" FLAGS DCP INDEX 01 00:00:00FILE "04. Church Window - Machine Head.wav" WAVE TRACK 04 AUDIO TITLE "Machine Head" PERFORMER "Church Window" INDEX 01 00:00:00FILE "05. Classic Action - Into The Glue.wav" WAVE TRACK 05 AUDIO TITLE "Into The Glue" PERFORMER "Classic Action" INDEX 01 00:00:00FILE "06. Department Of Dance - Systemlord.wav" WAVE TRACK 06 AUDIO TITLE "Systemlord" PERFORMER "Department Of Dance" INDEX 01 00:00:00FILE "07. Der Gyromant - Mops.wav" WAVE TRACK 07 AUDIO TITLE "Mops" PERFORMER "Der Gyromant" FLAGS DCP INDEX 01 00:00:00FILE "08. Gnork - Mythos.wav" WAVE TRACK 08 AUDIO TITLE "Mythos" PERFORMER "Gnork" FLAGS DCP INDEX 01 00:00:00FILE "09. Olaf Apholz - Unterwegs.wav" WAVE TRACK 09 AUDIO TITLE "Unterwegs" PERFORMER "Olaf Apholz" INDEX 01 00:00:00FILE "10. Pete Atkins - Foolin Around.wav" WAVE TRACK 10 AUDIO TITLE "Foolin Around" PERFORMER "Pete Atkins" INDEX 01 00:00:00FILE "11. Acid Warrior - Classique.wav" WAVE TRACK 11 AUDIO TITLE "Classique" PERFORMER "Acid Warrior" INDEX 01 00:00:00

Log EAC CD 2

Exact Audio Copy V1.0 beta 4 from 7. December 2014
EAC extraction logfile from 6. March 2015, 22:06
Various / Hardcore & Acid (Disc 2)
Used drive : ASUS SDRW-08D2S-U Adapter: 1 ID: 0
Read mode : SecureUtilize accurate stream : YesDefeat audio cache : YesMake use of C2 pointers : No
Read offset correction : 6Overread into Lead-In and Lead-Out : NoFill up missing offset samples with silence : YesDelete leading and trailing silent blocks : NoNull samples used in CRC calculations : YesUsed interface : Native Win32 interface for Win NT & 2000Gap handling : Appended to previous track
Used output format : User Defined EncoderSelected bitrate : 128 kBit/sQuality : HighAdd ID3 tag : NoCommand line compressor : C:\flac-1.3.0-x64-icl\flac.exeAdditional command line options : -8 -V -T "ARTIST=%artist%" -T "TITLE=%title%" -T "ALBUM=%albumtitle%" -T "DATE=%year%" -T "TRACKNUMBER=%tracknr%" -T "GENRE=%genre%" -T "COMMENT=ripped by Andy aka yetiisyou special for Rutracker.org" %source%
TOC of the extracted CD
Track | Start | Length | Start sector | End sector --------------------------------------------------------- 1 | 0:00.00 | 4:46.56 | 0 | 21505 2 | 4:46.56 | 2:37.17 | 21506 | 33297 3 | 7:23.73 | 5:36.46 | 33298 | 58543 4 | 13:00.44 | 2:45.64 | 58544 | 70982 5 | 15:46.33 | 5:06.40 | 70983 | 93972 6 | 20:52.73 | 4:51.57 | 93973 | 115854 7 | 25:44.55 | 4:39.44 | 115855 | 136823 8 | 30:24.24 | 3:06.58 | 136824 | 150831 9 | 33:31.07 | 4:17.08 | 150832 | 170114 10 | 37:48.15 | 4:37.32 | 170115 | 190921 11 | 42:25.47 | 4:49.71 | 190922 | 212667 12 | 47:15.43 | 4:25.24 | 212668 | 232566 13 | 51:40.67 | 4:41.15 | 232567 | 253656 14 | 56:22.07 | 4:44.62 | 253657 | 275018 15 | 61:06.69 | 4:16.65 | 275019 | 294283
Track 1
Filename E:\!Ripped by Andy aka yetiisyou\VA - Hardcore & Acid [BOX 7763-2] [2003]\Disc 2\01. The Shapeshifter - Puzzy Thing.wav
Pre-gap length 0:00:02.00
Peak level 100.0 % Extraction speed 2.6 X Track quality 100.0 % Test CRC 46EDF2FB Copy CRC 46EDF2FB Accurately ripped (confidence 2) [670269AD] (AR v1) Copy OK
Track 2
Filename E:\!Ripped by Andy aka yetiisyou\VA - Hardcore & Acid [BOX 7763-2] [2003]\Disc 2\02. Napalm 7 - B1.wav
Peak level 100.0 % Extraction speed 2.7 X Track quality 100.0 % Test CRC 90495C58 Copy CRC 90495C58 Accurately ripped (confidence 2) [05387878] (AR v1) Copy OK
Track 3
Filename E:\!Ripped by Andy aka yetiisyou\VA - Hardcore & Acid [BOX 7763-2] [2003]\Disc 2\03. Members Of Shockwave - Everybody.wav
Peak level 100.0 % Extraction speed 2.9 X Track quality 99.9 % Test CRC F472E195 Copy CRC F472E195 Accurately ripped (confidence 2) [1C5DA07A] (AR v1) Copy OK
Track 4
Filename E:\!Ripped by Andy aka yetiisyou\VA - Hardcore & Acid [BOX 7763-2] [2003]\Disc 2\04. The Speedfreak - Murder The World.wav
Peak level 100.0 % Extraction speed 3.2 X Track quality 100.0 % Test CRC 0C246342 Copy CRC 0C246342 Accurately ripped (confidence 2) [D49F57BD] (AR v1) Copy OK
Track 5
Filename E:\!Ripped by Andy aka yetiisyou\VA - Hardcore & Acid [BOX 7763-2] [2003]\Disc 2\05. Bazzoka - Die 303 Maschine.wav
Peak level 100.0 % Extraction speed 3.7 X Track quality 100.0 % Test CRC 6907C938 Copy CRC 6907C938 Accurately ripped (confidence 2) [B178E2F1] (AR v1) Copy OK
Track 6
Filename E:\!Ripped by Andy aka yetiisyou\VA - Hardcore & Acid [BOX 7763-2] [2003]\Disc 2\06. BC Kid - Bad Dreams.wav
Peak level 99.9 % Extraction speed 3.9 X Track quality 100.0 % Test CRC 13279177 Copy CRC 13279177 Accurately ripped (confidence 2) [0F35F36B] (AR v1) Copy OK
Track 7
Filename E:\!Ripped by Andy aka yetiisyou\VA - Hardcore & Acid [BOX 7763-2] [2003]\Disc 2\07. Biochip C - So What.wav
Peak level 100.0 % Extraction speed 4.1 X Track quality 100.0 % Test CRC 6B73BE89 Copy CRC 6B73BE89 Accurately ripped (confidence 2) [6DD1344C] (AR v1) Copy OK
Track 8
Filename E:\!Ripped by Andy aka yetiisyou\VA - Hardcore & Acid [BOX 7763-2] [2003]\Disc 2\08. Cyberchrist - Belief.wav
Peak level 100.0 % Extraction speed 4.0 X Track quality 100.0 % Test CRC B6A38E2E Copy CRC B6A38E2E Accurately ripped (confidence 2) [27C48DE4] (AR v1) Copy OK
Track 9
Filename E:\!Ripped by Andy aka yetiisyou\VA - Hardcore & Acid [BOX 7763-2] [2003]\Disc 2\09. DJ Fistfuck - Little Box.wav
Peak level 100.0 % Extraction speed 4.4 X Track quality 100.0 % Test CRC 0CF48DFC Copy CRC 0CF48DFC Accurately ripped (confidence 2) [953D1596] (AR v1) Copy OK
Track 10
Filename E:\!Ripped by Andy aka yetiisyou\VA - Hardcore & Acid [BOX 7763-2] [2003]\Disc 2\10. E-De-Cologne - Kill For Jesus.wav
Peak level 100.0 % Extraction speed 4.6 X Track quality 100.0 % Test CRC 63530300 Copy CRC 63530300 Accurately ripped (confidence 2) [4891F6B9] (AR v1) Copy OK
Track 11
Filename E:\!Ripped by Andy aka yetiisyou\VA - Hardcore & Acid [BOX 7763-2] [2003]\Disc 2\11. Fazer - When I'm Gone.wav
Peak level 100.0 % Extraction speed 4.9 X Track quality 100.0 % Test CRC AEB1FB28 Copy CRC AEB1FB28 Accurately ripped (confidence 2) [65B95B6B] (AR v1) Copy OK
Track 12
Filename E:\!Ripped by Andy aka yetiisyou\VA - Hardcore & Acid [BOX 7763-2] [2003]\Disc 2\12. Psyche Out - Take That, MF.wav
Peak level 100.0 % Extraction speed 4.9 X Track quality 100.0 % Test CRC D3976E1A Copy CRC D3976E1A Accurately ripped (confidence 2) [D70C2F5F] (AR v1) Copy OK
Track 13
Filename E:\!Ripped by Andy aka yetiisyou\VA - Hardcore & Acid [BOX 7763-2] [2003]\Disc 2\13. 909 Abuse - Fucktrance.wav
Peak level 100.0 % Extraction speed 4.6 X Track quality 99.9 % Test CRC 10037F59 Copy CRC 10037F59 Accurately ripped (confidence 2) [2A4C7867] (AR v1) Copy OK
Track 14
Filename E:\!Ripped by Andy aka yetiisyou\VA - Hardcore & Acid [BOX 7763-2] [2003]\Disc 2\14. Napalm 10 - Napalm.wav
Peak level 100.0 % Extraction speed 2.1 X Track quality 99.9 % Test CRC 5DD69877 Copy CRC 5DD69877 Accurately ripped (confidence 2) [CF3472AD] (AR v1) Copy OK
Track 15
Filename E:\!Ripped by Andy aka yetiisyou\VA - Hardcore & Acid [BOX 7763-2] [2003]\Disc 2\15. Random Rampage - Viva.wav
Peak level 100.0 % Extraction speed 2.4 X Track quality 100.0 % Test CRC 7B302303 Copy CRC 7B302303 Accurately ripped (confidence 2) [186419B8] (AR v1) Copy OK
All tracks accurately ripped
No errors occurred
End of status report
---- CUETools DB Plugin V2.1.4
[CTDB TOCID: 2gZjQYyt79DY8XLV0c.7IEMENgc-] disk not present in databaseSubmit result: 2gZjQYyt79DY8XLV0c.7IEMENgc- has been uploaded
==== Log checksum A7D12970808544D6B0F7B7B9A726CE54D657D3E8306F9CD4337A6A88EC777C67 ====

CUE

REM DATE 2003REM DISCID DA0F530FREM COMMENT "ExactAudioCopy v1.0b4"PERFORMER "Various"TITLE "Hardcore & Acid (Disc 2)"FILE "01. The Shapeshifter - Puzzy Thing.wav" WAVE TRACK 01 AUDIO TITLE "Puzzy Thing" PERFORMER "The Shapeshifter" FLAGS DCP INDEX 01 00:00:00FILE "02. Napalm 7 - B1.wav" WAVE TRACK 02 AUDIO TITLE "B1" PERFORMER "Napalm 7" FLAGS DCP INDEX 01 00:00:00FILE "03. Members Of Shockwave - Everybody.wav" WAVE TRACK 03 AUDIO TITLE "Everybody" PERFORMER "Members Of Shockwave" FLAGS DCP INDEX 01 00:00:00FILE "04. The Speedfreak - Murder The World.wav" WAVE TRACK 04 AUDIO TITLE "Murder The World" PERFORMER "The Speedfreak" FLAGS DCP INDEX 01 00:00:00FILE "05. Bazzoka - Die 303 Maschine.wav" WAVE TRACK 05 AUDIO TITLE "Die 303 Maschine" PERFORMER "Bazzoka" FLAGS DCP INDEX 01 00:00:00FILE "06. BC Kid - Bad Dreams.wav" WAVE TRACK 06 AUDIO TITLE "Bad Dreams" PERFORMER "BC Kid" FLAGS DCP INDEX 01 00:00:00FILE "07. Biochip C - So What.wav" WAVE TRACK 07 AUDIO TITLE "So What" PERFORMER "Biochip C" FLAGS DCP INDEX 01 00:00:00FILE "08. Cyberchrist - Belief.wav" WAVE TRACK 08 AUDIO TITLE "Belief" PERFORMER "Cyberchrist" FLAGS DCP INDEX 01 00:00:00FILE "09. DJ Fistfuck - Little Box.wav" WAVE TRACK 09 AUDIO TITLE "Little Box" PERFORMER "DJ Fistfuck" FLAGS DCP INDEX 01 00:00:00FILE "10. E-De-Cologne - Kill For Jesus.wav" WAVE TRACK 10 AUDIO TITLE "Kill For Jesus" PERFORMER "E-De-Cologne" FLAGS DCP INDEX 01 00:00:00FILE "11. Fazer - When I'm Gone.wav" WAVE TRACK 11 AUDIO TITLE "When I'm Gone" PERFORMER "Fazer" FLAGS DCP INDEX 01 00:00:00FILE "12. Psyche Out - Take That, MF.wav" WAVE TRACK 12 AUDIO TITLE "Take That, MF" PERFORMER "Psyche Out" FLAGS DCP INDEX 01 00:00:00FILE "13. 909 Abuse - Fucktrance.wav" WAVE TRACK 13 AUDIO TITLE "Fucktrance" PERFORMER "909 Abuse" FLAGS DCP INDEX 01 00:00:00FILE "14. Napalm 10 - Napalm.wav" WAVE TRACK 14 AUDIO TITLE "Napalm" PERFORMER "Napalm 10" FLAGS DCP INDEX 01 00:00:00FILE "15. Random Rampage - Viva.wav" WAVE TRACK 15 AUDIO TITLE "Viva" PERFORMER "Random Rampage" FLAGS DCP INDEX 01 00:00:00

Log EAC CD 3

Exact Audio Copy V1.0 beta 4 from 7. December 2014
EAC extraction logfile from 6. March 2015, 22:58
Various / Hardcore & Acid (Disc 3)
Used drive : ASUS SDRW-08D2S-U Adapter: 1 ID: 0
Read mode : SecureUtilize accurate stream : YesDefeat audio cache : YesMake use of C2 pointers : No
Read offset correction : 6Overread into Lead-In and Lead-Out : NoFill up missing offset samples with silence : YesDelete leading and trailing silent blocks : NoNull samples used in CRC calculations : YesUsed interface : Native Win32 interface for Win NT & 2000Gap handling : Appended to previous track
Used output format : User Defined EncoderSelected bitrate : 128 kBit/sQuality : HighAdd ID3 tag : NoCommand line compressor : C:\flac-1.3.0-x64-icl\flac.exeAdditional command line options : -8 -V -T "ARTIST=%artist%" -T "TITLE=%title%" -T "ALBUM=%albumtitle%" -T "DATE=%year%" -T "TRACKNUMBER=%tracknr%" -T "GENRE=%genre%" -T "COMMENT=ripped by Andy aka yetiisyou special for Rutracker.org" %source%
TOC of the extracted CD
Track | Start | Length | Start sector | End sector --------------------------------------------------------- 1 | 0:00.00 | 2:50.21 | 0 | 12770 2 | 2:50.21 | 3:53.38 | 12771 | 30283 3 | 6:43.59 | 6:16.68 | 30284 | 58551 4 | 13:00.52 | 4:55.67 | 58552 | 80743 5 | 17:56.44 | 5:33.34 | 80744 | 105752 6 | 23:30.03 | 3:38.62 | 105753 | 122164 7 | 27:08.65 | 4:28.34 | 122165 | 142298 8 | 31:37.24 | 4:56.38 | 142299 | 164536 9 | 36:33.62 | 3:38.34 | 164537 | 180920 10 | 40:12.21 | 5:02.03 | 180921 | 203573 11 | 45:14.24 | 4:39.34 | 203574 | 224532 12 | 49:53.58 | 5:20.38 | 224533 | 248570 13 | 55:14.21 | 3:37.48 | 248571 | 264893 14 | 58:51.69 | 4:52.09 | 264894 | 286802 15 | 63:44.03 | 7:05.14 | 286803 | 318691
Track 1
Filename E:\!Ripped by Andy aka yetiisyou\VA - Hardcore & Acid [BOX 7763-2] [2003]\Disc 3\01. Sorcerer - Summer.wav
Pre-gap length 0:00:02.00
Peak level 100.0 % Extraction speed 2.2 X Track quality 99.9 % Test CRC 61F0C599 Copy CRC 61F0C599 Accurately ripped (confidence 2) [9A3FF652] (AR v1) Copy OK
Track 2
Filename E:\!Ripped by Andy aka yetiisyou\VA - Hardcore & Acid [BOX 7763-2] [2003]\Disc 3\02. The Berzerker - B.R.A.I.N.D.E.A.D..wav
Peak level 99.9 % Extraction speed 3.0 X Track quality 100.0 % Test CRC 8396F234 Copy CRC 8396F234 Accurately ripped (confidence 2) [302D8B23] (AR v1) Copy OK
Track 3
Filename E:\!Ripped by Andy aka yetiisyou\VA - Hardcore & Acid [BOX 7763-2] [2003]\Disc 3\03. Search & Destroy - Destroy, My Robots.wav
Peak level 100.0 % Extraction speed 3.5 X Track quality 100.0 % Test CRC 33446EA0 Copy CRC 33446EA0 Accurately ripped (confidence 2) [C5A8A6C8] (AR v1) Copy OK
Track 4
Filename E:\!Ripped by Andy aka yetiisyou\VA - Hardcore & Acid [BOX 7763-2] [2003]\Disc 3\04. Red Bullfighter - Rapido Infernal.wav
Peak level 99.9 % Extraction speed 3.7 X Track quality 100.0 % Test CRC D371C612 Copy CRC D371C612 Accurately ripped (confidence 2) [169ADBB7] (AR v1) Copy OK
Track 5
Filename E:\!Ripped by Andy aka yetiisyou\VA - Hardcore & Acid [BOX 7763-2] [2003]\Disc 3\05. S.C.U.M. - Liquidation Now.wav
Peak level 100.0 % Extraction speed 4.0 X Track quality 100.0 % Test CRC A1E5E725 Copy CRC A1E5E725 Accurately ripped (confidence 2) [4AE491DB] (AR v1) Copy OK
Track 6
Filename E:\!Ripped by Andy aka yetiisyou\VA - Hardcore & Acid [BOX 7763-2] [2003]\Disc 3\06. The Bladerunner - Bumb-Rush.wav
Peak level 100.0 % Extraction speed 4.0 X Track quality 100.0 % Test CRC F64B39D6 Copy CRC F64B39D6 Accurately ripped (confidence 2) [77947A7B] (AR v1) Copy OK
Track 7
Filename E:\!Ripped by Andy aka yetiisyou\VA - Hardcore & Acid [BOX 7763-2] [2003]\Disc 3\07. Seveso - ABC-Alarm.wav
Peak level 100.0 % Extraction speed 4.3 X Track quality 100.0 % Test CRC D3D2D7BA Copy CRC D3D2D7BA Accurately ripped (confidence 2) [30102E44] (AR v1) Copy OK
Track 8
Filename E:\!Ripped by Andy aka yetiisyou\VA - Hardcore & Acid [BOX 7763-2] [2003]\Disc 3\08. The Noize Junkie - Nighttrain.wav
Peak level 100.0 % Extraction speed 4.6 X Track quality 100.0 % Test CRC 7419DE16 Copy CRC 7419DE16 Accurately ripped (confidence 2) [E8A57456] (AR v1) Copy OK
Track 9
Filename E:\!Ripped by Andy aka yetiisyou\VA - Hardcore & Acid [BOX 7763-2] [2003]\Disc 3\09. Somatic Responses - Fury's Theme.wav
Peak level 100.0 % Extraction speed 4.0 X Track quality 99.9 % Test CRC 2A88D9CF Copy CRC 2A88D9CF Accurately ripped (confidence 2) [7CC28EEC] (AR v1) Copy OK
Track 10
Filename E:\!Ripped by Andy aka yetiisyou\VA - Hardcore & Acid [BOX 7763-2] [2003]\Disc 3\10. Sonic Overkill - Why Don't You Die.wav
Peak level 100.0 % Extraction speed 4.9 X Track quality 100.0 % Test CRC 45A33DFD Copy CRC 45A33DFD Accurately ripped (confidence 2) [BD64130F] (AR v1) Copy OK
Track 11
Filename E:\!Ripped by Andy aka yetiisyou\VA - Hardcore & Acid [BOX 7763-2] [2003]\Disc 3\11. The Spapeshifter - The King.wav
Peak level 99.9 % Extraction speed 5.0 X Track quality 100.0 % Test CRC CB82E4EC Copy CRC CB82E4EC Accurately ripped (confidence 2) [EB73B4A2] (AR v1) Copy OK
Track 12
Filename E:\!Ripped by Andy aka yetiisyou\VA - Hardcore & Acid [BOX 7763-2] [2003]\Disc 3\12. Violator - A Sick World.wav
Peak level 100.0 % Extraction speed 5.4 X Track quality 100.0 % Test CRC 44C97BB2 Copy CRC 44C97BB2 Accurately ripped (confidence 2) [F695C4B1] (AR v1) Copy OK
Track 13
Filename E:\!Ripped by Andy aka yetiisyou\VA - Hardcore & Acid [BOX 7763-2] [2003]\Disc 3\13. Wendy Milan - Fuckin' Biaaatch.wav
Peak level 100.0 % Extraction speed 5.3 X Track quality 100.0 % Test CRC 17C12C95 Copy CRC 17C12C95 Accurately ripped (confidence 2) [97CCDAF7] (AR v1) Copy OK
Track 14
Filename E:\!Ripped by Andy aka yetiisyou\VA - Hardcore & Acid [BOX 7763-2] [2003]\Disc 3\14. The Speedfreak - The Session.wav
Peak level 100.0 % Extraction speed 5.6 X Track quality 100.0 % Test CRC B254F7D0 Copy CRC B254F7D0 Accurately ripped (confidence 2) [B772BD04] (AR v1) Copy OK
Track 15
Filename E:\!Ripped by Andy aka yetiisyou\VA - Hardcore & Acid [BOX 7763-2] [2003]\Disc 3\15. Napalm 12 - The Dawn Of A New Error.wav
Peak level 100.0 % Extraction speed 2.6 X Track quality 100.0 % Test CRC FC86D4F4 Copy CRC FC86D4F4 Accurately ripped (confidence 2) [74B7060F] (AR v1) Copy OK
All tracks accurately ripped
No errors occurred
End of status report
---- CUETools DB Plugin V2.1.4
[CTDB TOCID: tWUDeB6stGOLJAhrUG.wxGtvv4M-] foundSubmit result: tWUDeB6stGOLJAhrUG.wxGtvv4M- has been confirmedTrack | CTDB Status 1 | (1/1) Accurately ripped 2 | (1/1) Accurately ripped 3 | (1/1) Accurately ripped 4 | (1/1) Accurately ripped 5 | (1/1) Accurately ripped 6 | (1/1) Accurately ripped 7 | (1/1) Accurately ripped 8 | (1/1) Accurately ripped 9 | (1/1) Accurately ripped 10 | (1/1) Accurately ripped 11 | (1/1) Accurately ripped 12 | (1/1) Accurately ripped 13 | (1/1) Accurately ripped 14 | (1/1) Accurately ripped 15 | (1/1) Accurately ripped
==== Log checksum 7A2F32B61AC5A6D7B40889781E1A007B74C50AAB38225F120062F024585852AD ====

CUE

REM DATE 2003REM DISCID D610990FREM COMMENT "ExactAudioCopy v1.0b4"PERFORMER "Various"TITLE "Hardcore & Acid (Disc 3)"FILE "01. Sorcerer - Summer.wav" WAVE TRACK 01 AUDIO TITLE "Summer" PERFORMER "Sorcerer" FLAGS DCP INDEX 01 00:00:00FILE "02. The Berzerker - B.R.A.I.N.D.E.A.D..wav" WAVE TRACK 02 AUDIO TITLE "B.R.A.I.N.D.E.A.D." PERFORMER "The Berzerker" FLAGS DCP INDEX 01 00:00:00FILE "03. Search & Destroy - Destroy, My Robots.wav" WAVE TRACK 03 AUDIO TITLE "Destroy, My Robots" PERFORMER "Search & Destroy" FLAGS DCP INDEX 01 00:00:00FILE "04. Red Bullfighter - Rapido Infernal.wav" WAVE TRACK 04 AUDIO TITLE "Rapido Infernal" PERFORMER "Red Bullfighter" FLAGS DCP INDEX 01 00:00:00FILE "05. S.C.U.M. - Liquidation Now.wav" WAVE TRACK 05 AUDIO TITLE "Liquidation Now" PERFORMER "S.C.U.M." FLAGS DCP INDEX 01 00:00:00FILE "06. The Bladerunner - Bumb-Rush.wav" WAVE TRACK 06 AUDIO TITLE "Bumb-Rush" PERFORMER "The Bladerunner" FLAGS DCP INDEX 01 00:00:00FILE "07. Seveso - ABC-Alarm.wav" WAVE TRACK 07 AUDIO TITLE "ABC-Alarm" PERFORMER "Seveso" FLAGS DCP INDEX 01 00:00:00FILE "08. The Noize Junkie - Nighttrain.wav" WAVE TRACK 08 AUDIO TITLE "Nighttrain" PERFORMER "The Noize Junkie" FLAGS DCP INDEX 01 00:00:00FILE "09. Somatic Responses - Fury's Theme.wav" WAVE TRACK 09 AUDIO TITLE "Fury's Theme" PERFORMER "Somatic Responses" FLAGS DCP INDEX 01 00:00:00FILE "10. Sonic Overkill - Why Don't You Die.wav" WAVE TRACK 10 AUDIO TITLE "Why Don't You Die" PERFORMER "Sonic Overkill" FLAGS DCP INDEX 01 00:00:00FILE "11. The Spapeshifter - The King.wav" WAVE TRACK 11 AUDIO TITLE "The King" PERFORMER "The Spapeshifter" FLAGS DCP INDEX 01 00:00:00FILE "12. Violator - A Sick World.wav" WAVE TRACK 12 AUDIO TITLE "A Sick World" PERFORMER "Violator" FLAGS DCP INDEX 01 00:00:00FILE "13. Wendy Milan - Fuckin' Biaaatch.wav" WAVE TRACK 13 AUDIO TITLE "Fuckin' Biaaatch" PERFORMER "Wendy Milan" FLAGS DCP INDEX 01 00:00:00FILE "14. The Speedfreak - The Session.wav" WAVE TRACK 14 AUDIO TITLE "The Session" PERFORMER "The Speedfreak" FLAGS DCP INDEX 01 00:00:00FILE "15. Napalm 12 - The Dawn Of A New Error.wav" WAVE TRACK 15 AUDIO TITLE "The Dawn Of A New Error" PERFORMER "Napalm 12" FLAGS DCP INDEX 01 00:00:00
Показать сообщения:    

Текущее время: 23-Окт 16:09

Часовой пояс: UTC - 1


Вы не можете начинать темы
Вы не можете отвечать на сообщения
Вы не можете редактировать свои сообщения
Вы не можете удалять свои сообщения
Вы не можете голосовать в опросах
Вы не можете прикреплять файлы к сообщениям
Вы не можете скачивать файлы

!ВНИМАНИЕ!
Сайт не предоставляет электронные версии произведений, а занимается лишь коллекционированием и каталогизацией ссылок, присылаемых и публикуемых на форуме нашими читателями. Если вы являетесь правообладателем какого-либо представленного материала и не желаете, чтобы ссылка на него находилась в нашем каталоге, свяжитесь с нами, и мы незамедлительно удалим ее. Файлы для обмена на трекере предоставлены пользователями сайта, и администрация не несет ответственности за их содержание. Просьба не заливать файлы, защищенные авторскими правами, а также файлы нелегального содержания!