Важное объявление!
У Нас Все раздачи мультитрекерные, при нуле пиров в релизах, можете смело вставать на закачку!
 
Автор Сообщение

HUNTER

Стаж:
4 года 4 месяца
Сообщений:
56829

Репутация: 101

[+] [-]
Вне форума [Профиль] [ЛС]

Fucking Hardcore #6
Жанр: Hardcore, Acid, Gabber
Носитель: CD
Год издания: 1997
Издатель (лейбл): Mokum Records
Номер по каталогу: DB 4782 2
Аудиокодек: FLAC (*.flac)
Тип рипа: tracks+.cue
Битрейт аудио: lossless
Продолжительность: 01:16:31
Источник (релизер): what.cd
Наличие сканов в содержимом раздачи: да
Треклист:
01. Chosen Few - Fucking Hardcore #6 [01:20]
02. Tellurian - The Sound of the Underground [04:10]
03. Outside Agency - Hardcore Headz [04:45]
04. Fear Factory - T-1000 (Dano mix) [04:54]
05. Demolition Team - Thermal Fuse [06:05]
06. DJ Dano & ZE'V - Big Time Nose [03:59]
07. PainKiller - Stormfront [04:50]
08. Walter One - Live in Hell [04:54]
09. Chosen Few - Zlam (Here It Comez) [04:19]
10. Ceasefire - Who's Afraid of Noise [04:13]
11. Chosen Few - Name of the DJ (X-Factor mix) [04:31]
12. Tellurian - I Wont Stop Rocking [04:35]
13. Elvis Jackson - NarcoTerror [04:12]
14. Search & Destroy - A Trip to Pussyland [05:12]
15. Outside Agency - Touch the Darkness [04:53]
16. Walter One - Speedjack [03:58]
17. Aggroman - Starcore [05:36]

Лог создания рипа

Exact Audio Copy V1.0 beta 3 from 29. August 2011
EAC extraction logfile from 15. September 2012, 23:13
Various Artists / Fucking Hardcore #6
Used drive : HL-DT-STDVDRAM GSA-T10N Adapter: 0 ID: 0
Read mode : SecureUtilize accurate stream : YesDefeat audio cache : YesMake use of C2 pointers : No
Read offset correction : 667Overread into Lead-In and Lead-Out : NoFill up missing offset samples with silence : YesDelete leading and trailing silent blocks : NoNull samples used in CRC calculations : YesUsed interface : Native Win32 interface for Win NT & 2000Gap handling : Appended to previous track
Used output format : Internal WAV RoutinesSample format : 44.100 Hz; 16 Bit; Stereo
TOC of the extracted CD
Track | Start | Length | Start sector | End sector --------------------------------------------------------- 1 | 0:00.00 | 1:20.12 | 0 | 6011 2 | 1:20.12 | 4:10.23 | 6012 | 24784 3 | 5:30.35 | 4:45.65 | 24785 | 46224 4 | 10:16.25 | 4:54.30 | 46225 | 68304 5 | 15:10.55 | 6:05.02 | 68305 | 95681 6 | 21:15.57 | 3:59.38 | 95682 | 113644 7 | 25:15.20 | 4:50.47 | 113645 | 135441 8 | 30:05.67 | 4:54.53 | 135442 | 157544 9 | 35:00.45 | 4:19.00 | 157545 | 176969 10 | 39:19.45 | 4:13.00 | 176970 | 195944 11 | 43:32.45 | 4:31.00 | 195945 | 216269 12 | 48:03.45 | 4:35.57 | 216270 | 236951 13 | 52:39.27 | 4:12.25 | 236952 | 255876 14 | 56:51.52 | 5:12.00 | 255877 | 279276 15 | 62:03.52 | 4:53.35 | 279277 | 301286 16 | 66:57.12 | 3:58.13 | 301287 | 319149 17 | 70:55.25 | 5:36.00 | 319150 | 344349
Track 1
Filename D:\Various Artists - Fucking Hardcore Pt6 (1997) [FLAC] (Mokum Records DB 4782 2) [VelvetUndergroundForum.com]\01 - Chosen Few - Fucking Hardcore #6.wav
Pre-gap length 0:00:02.00
Peak level 99.1 % Extraction speed 0.9 X Track quality 100.0 % Test CRC 164A7261 Copy CRC 164A7261 Track not present in AccurateRip database Copy OK
Track 2
Filename D:\Various Artists - Fucking Hardcore Pt6 (1997) [FLAC] (Mokum Records DB 4782 2) [VelvetUndergroundForum.com]\02 - Tellurian - The Sound of the Underground.wav
Peak level 99.0 % Extraction speed 1.1 X Track quality 99.9 % Test CRC 9DABCFB8 Copy CRC 9DABCFB8 Track not present in AccurateRip database Copy OK
Track 3
Filename D:\Various Artists - Fucking Hardcore Pt6 (1997) [FLAC] (Mokum Records DB 4782 2) [VelvetUndergroundForum.com]\03 - Outside Agency - Hardcore Headz.wav
Pre-gap length 0:00:00.01
Peak level 99.0 % Extraction speed 0.5 X Track quality 99.5 % Test CRC F3458EE4 Copy CRC F3458EE4 Track not present in AccurateRip database Copy OK
Track 4
Filename D:\Various Artists - Fucking Hardcore Pt6 (1997) [FLAC] (Mokum Records DB 4782 2) [VelvetUndergroundForum.com]\04 - Fear Factory - T-1000 (Dano mix).wav
Peak level 97.4 % Extraction speed 1.4 X Track quality 99.9 % Test CRC 48A0E069 Copy CRC 48A0E069 Track not present in AccurateRip database Copy OK
Track 5
Filename D:\Various Artists - Fucking Hardcore Pt6 (1997) [FLAC] (Mokum Records DB 4782 2) [VelvetUndergroundForum.com]\05 - Demolition Team - Thermal Fuse.wav
Peak level 99.6 % Extraction speed 1.3 X Track quality 99.9 % Test CRC BDF7FCB7 Copy CRC BDF7FCB7 Track not present in AccurateRip database Copy OK
Track 6
Filename D:\Various Artists - Fucking Hardcore Pt6 (1997) [FLAC] (Mokum Records DB 4782 2) [VelvetUndergroundForum.com]\06 - DJ Dano & ZE'V - Big Time Nose.wav
Peak level 99.0 % Extraction speed 1.2 X Track quality 99.8 % Test CRC F845E986 Copy CRC F845E986 Track not present in AccurateRip database Copy OK
Track 7
Filename D:\Various Artists - Fucking Hardcore Pt6 (1997) [FLAC] (Mokum Records DB 4782 2) [VelvetUndergroundForum.com]\07 - PainKiller - Stormfront.wav
Peak level 99.0 % Extraction speed 1.9 X Track quality 100.0 % Test CRC 25894FB8 Copy CRC 25894FB8 Track not present in AccurateRip database Copy OK
Track 8
Filename D:\Various Artists - Fucking Hardcore Pt6 (1997) [FLAC] (Mokum Records DB 4782 2) [VelvetUndergroundForum.com]\08 - Walter One - Live in Hell.wav
Peak level 92.0 % Extraction speed 2.0 X Track quality 100.0 % Test CRC B5D7B708 Copy CRC B5D7B708 Track not present in AccurateRip database Copy OK
Track 9
Filename D:\Various Artists - Fucking Hardcore Pt6 (1997) [FLAC] (Mokum Records DB 4782 2) [VelvetUndergroundForum.com]\09 - Chosen Few - Zlam (Here It Comez).wav
Peak level 99.0 % Extraction speed 1.7 X Track quality 99.9 % Test CRC 65FFEF3F Copy CRC 65FFEF3F Track not present in AccurateRip database Copy OK
Track 10
Filename D:\Various Artists - Fucking Hardcore Pt6 (1997) [FLAC] (Mokum Records DB 4782 2) [VelvetUndergroundForum.com]\10 - Ceasefire - Who's Afraid of Noise.wav
Peak level 90.5 % Extraction speed 2.1 X Track quality 100.0 % Test CRC 3154FAAA Copy CRC 3154FAAA Track not present in AccurateRip database Copy OK
Track 11
Filename D:\Various Artists - Fucking Hardcore Pt6 (1997) [FLAC] (Mokum Records DB 4782 2) [VelvetUndergroundForum.com]\11 - Chosen Few - Name of the DJ (X-Factor mix).wav
Peak level 99.0 % Extraction speed 2.3 X Track quality 100.0 % Test CRC 67C7D92A Copy CRC 67C7D92A Track not present in AccurateRip database Copy OK
Track 12
Filename D:\Various Artists - Fucking Hardcore Pt6 (1997) [FLAC] (Mokum Records DB 4782 2) [VelvetUndergroundForum.com]\12 - Tellurian - I Wont Stop Rocking.wav
Peak level 99.0 % Extraction speed 2.1 X Track quality 99.9 % Test CRC 9CADEFC5 Copy CRC 9CADEFC5 Track not present in AccurateRip database Copy OK
Track 13
Filename D:\Various Artists - Fucking Hardcore Pt6 (1997) [FLAC] (Mokum Records DB 4782 2) [VelvetUndergroundForum.com]\13 - Elvis Jackson - NarcoTerror.wav
Peak level 99.5 % Extraction speed 2.0 X Track quality 99.9 % Test CRC DE1F0250 Copy CRC DE1F0250 Track not present in AccurateRip database Copy OK
Track 14
Filename D:\Various Artists - Fucking Hardcore Pt6 (1997) [FLAC] (Mokum Records DB 4782 2) [VelvetUndergroundForum.com]\14 - Search & Destroy - A Trip to Pussyland.wav
Peak level 99.0 % Extraction speed 1.4 X Track quality 99.8 % Test CRC 282F9B26 Copy CRC 282F9B26 Track not present in AccurateRip database Copy OK
Track 15
Filename D:\Various Artists - Fucking Hardcore Pt6 (1997) [FLAC] (Mokum Records DB 4782 2) [VelvetUndergroundForum.com]\15 - Outside Agency - Touch the Darkness.wav
Peak level 99.0 % Extraction speed 2.2 X Track quality 99.9 % Test CRC 4093616A Copy CRC 4093616A Track not present in AccurateRip database Copy OK
Track 16
Filename D:\Various Artists - Fucking Hardcore Pt6 (1997) [FLAC] (Mokum Records DB 4782 2) [VelvetUndergroundForum.com]\16 - Walter One - Speedjack.wav
Peak level 100.0 % Extraction speed 2.6 X Track quality 100.0 % Test CRC 84FC6D98 Copy CRC 84FC6D98 Track not present in AccurateRip database Copy OK
Track 17
Filename D:\Various Artists - Fucking Hardcore Pt6 (1997) [FLAC] (Mokum Records DB 4782 2) [VelvetUndergroundForum.com]\17 - Aggroman - Starcore.wav
Peak level 99.0 % Extraction speed 2.5 X Track quality 99.9 % Test CRC 96422AD5 Copy CRC 96422AD5 Track not present in AccurateRip database Copy OK
None of the tracks are present in the AccurateRip database
No errors occurred
End of status report
---- CUETools DB Plugin V2.1.3
[CTDB TOCID: ybWMY3mqX8sGr8WkooKNXZ4YIK0-] found, Submit result: ybWMY3mqX8sGr8WkooKNXZ4YIK0- has been confirmed[066a0480] (1/1) Accurately ripped
==== Log checksum 00874F11CDEB30338CE6A43F01D3B78D410BBE8988F3FBDF1689F6497F03AF46 ====

Содержание индексной карты (.CUE)

REM DATE 1997REM DISCID DA11EF11REM COMMENT "ExactAudioCopy v1.0b3"PERFORMER "Various Artists"TITLE "Fucking Hardcore #6"FILE "01 - Chosen Few - Fucking Hardcore #6.wav" WAVE TRACK 01 AUDIO TITLE "Fucking Hardcore #6" PERFORMER "Chosen Few" INDEX 01 00:00:00FILE "02 - Tellurian - The Sound of the Underground.wav" WAVE TRACK 02 AUDIO TITLE "The Sound of the Underground" PERFORMER "Tellurian" INDEX 01 00:00:00 TRACK 03 AUDIO TITLE "Hardcore Headz" PERFORMER "Outside Agency" INDEX 00 04:10:22FILE "03 - Outside Agency - Hardcore Headz.wav" WAVE INDEX 01 00:00:00FILE "04 - Fear Factory - T-1000 (Dano mix).wav" WAVE TRACK 04 AUDIO TITLE "T-1000 (Dano mix)" PERFORMER "Fear Factory" INDEX 01 00:00:00FILE "05 - Demolition Team - Thermal Fuse.wav" WAVE TRACK 05 AUDIO TITLE "Thermal Fuse" PERFORMER "Demolition Team" INDEX 01 00:00:00FILE "06 - DJ Dano & ZE'V - Big Time Nose.wav" WAVE TRACK 06 AUDIO TITLE "Big Time Nose" PERFORMER "DJ Dano & ZE'V" INDEX 01 00:00:00FILE "07 - PainKiller - Stormfront.wav" WAVE TRACK 07 AUDIO TITLE "Stormfront" PERFORMER "PainKiller" INDEX 01 00:00:00FILE "08 - Walter One - Live in Hell.wav" WAVE TRACK 08 AUDIO TITLE "Live in Hell" PERFORMER "Walter One" INDEX 01 00:00:00FILE "09 - Chosen Few - Zlam (Here It Comez).wav" WAVE TRACK 09 AUDIO TITLE "Zlam (Here It Comez)" PERFORMER "Chosen Few" INDEX 01 00:00:00FILE "10 - Ceasefire - Who's Afraid of Noise.wav" WAVE TRACK 10 AUDIO TITLE "Who's Afraid of Noise" PERFORMER "Ceasefire" INDEX 01 00:00:00FILE "11 - Chosen Few - Name of the DJ (X-Factor mix).wav" WAVE TRACK 11 AUDIO TITLE "Name of the DJ (X-Factor mix)" PERFORMER "Chosen Few" INDEX 01 00:00:00FILE "12 - Tellurian - I Wont Stop Rocking.wav" WAVE TRACK 12 AUDIO TITLE "I Wont Stop Rocking" PERFORMER "Tellurian" INDEX 01 00:00:00FILE "13 - Elvis Jackson - NarcoTerror.wav" WAVE TRACK 13 AUDIO TITLE "NarcoTerror" PERFORMER "Elvis Jackson" INDEX 01 00:00:00FILE "14 - Search & Destroy - A Trip to Pussyland.wav" WAVE TRACK 14 AUDIO TITLE "A Trip to Pussyland" PERFORMER "Search & Destroy" INDEX 01 00:00:00FILE "15 - Outside Agency - Touch the Darkness.wav" WAVE TRACK 15 AUDIO TITLE "Touch the Darkness" PERFORMER "Outside Agency" INDEX 01 00:00:00FILE "16 - Walter One - Speedjack.wav" WAVE TRACK 16 AUDIO TITLE "Speedjack" PERFORMER "Walter One" INDEX 01 00:00:00FILE "17 - Aggroman - Starcore.wav" WAVE TRACK 17 AUDIO TITLE "Starcore" PERFORMER "Aggroman" INDEX 01 00:00:00

_________________
Показать сообщения:    

Текущее время: Сегодня 15:19

Часовой пояс: GMT



Вы не можете начинать темы
Вы не можете отвечать на сообщения
Вы не можете редактировать свои сообщения
Вы не можете удалять свои сообщения
Вы не можете голосовать в опросах
Вы не можете прикреплять файлы к сообщениям
Вы не можете скачивать файлы