Ивановский Торрент трекер
Яндекс.Погода
 

[Цитировать]
HUNTER

X-Ander – Achtung...Tanzen! (Maxi CD)
Жанр: Hard Trance, Makina
Страна-производитель диска: Germany
Год издания: 1995
Издатель (лейбл): Creative Music Records
Номер по каталогу: EAMS 5000-2
Аудиокодек: FLAC (*.flac)
Тип рипа: image+.cue
Битрейт аудио: lossless
Продолжительность: 17:00
Источник (релизер): Собственный рип
Наличие сканов в содержимом раздачи: да
Треклист:
1 Achtung... Tanzen! (Radio Version) 3:35
2 Achtung... Tanzen! (Rave In Rome) 6:02
3 Achtung... Tanzen! (Instrumental) 5:41
4 Achtung (Acappella) 1:17

Лог создания рипа

Exact Audio Copy V1.0 beta 2 from 29. April 2011
Отчёт EAC об извлечении, выполненном 1. апреля 2012, 17:15
x-ander / single
Дисковод: Optiarc DVD RW AD-7200S Adapter: 2 ID: 0
Режим чтения : ДостоверностьИспользование точного потока : ДаОтключение кэша аудио : ДаИспользование указателей C2 : Нет
Коррекция смещения при чтении : 48Способность читать области Lead-in и Lead-out : НетЗаполнение пропущенных сэмплов тишиной : ДаУдаление блоков с тишиной в начале и конце : НетПри вычислениях CRC использовались нулевые сэмплы : ДаИнтерфейс : Встроенный Win32-интерфейс для Win NT/2000
Выходной формат : Внутренние WAV-операцииФормат сэмплов : 44.100 Гц; 16 бит; стерео
TOC извлечённого CD
Трек | Старт | Длительность | Начальный сектор | Конечный сектор --------------------------------------------------------------------- 1 | 0:00.00 | 3:40.70 | 0 | 16569 2 | 3:40.70 | 6:07.65 | 16570 | 44159 3 | 9:48.60 | 5:48.47 | 44160 | 70306 4 | 15:37.32 | 1:22.60 | 70307 | 76516
Характеристики диапазона извлечения и сообщения об ошибках
Выбранный диапазон
Имя файла C:\Documents and Settings\vova\Рабочий стол\x-ander - single.wav
Пиковый уровень 89.4 % Скорость извлечения 2.9 X Качество диапазона 99.9 % CRC теста 0C2A1000 CRC копии 0C2A1000 Копирование... OK
Ошибок не произошло
AccurateRip: сводка
Трек 1 отсутствует в базе данныхТрек 2 отсутствует в базе данныхТрек 3 отсутствует в базе данныхТрек 4 отсутствует в базе данных
Ни одного трека нет в базе AccurateRip
Конец отчёта

Содержание индексной карты (.CUE)

REM DISCID 2B03FC04REM COMMENT "ExactAudioCopy v1.0b2"PERFORMER "x-ander"TITLE "single"FILE "x-ander - single.wav" WAVE TRACK 01 AUDIO TITLE "achtung ... tanzen! (radio version)" PERFORMER "x-ander" INDEX 01 00:00:00 TRACK 02 AUDIO TITLE "achtung ... tanzen! (rave in rome)" PERFORMER "x-ander" INDEX 00 03:37:72 INDEX 01 03:40:70 TRACK 03 AUDIO TITLE "achtung ... tanzen! (instrumental)" PERFORMER "x-ander" INDEX 00 09:45:47 INDEX 01 09:48:60 TRACK 04 AUDIO TITLE "achtung ... tanzen (acappella)" PERFORMER "x-ander" INDEX 00 15:34:45 INDEX 01 15:37:32
Доп. информация: http://www.discogs.com/X-Ander-AchtungTanzen/release/810040
Показать сообщения:    

Текущее время: 22-Окт 21:45

Часовой пояс: UTC - 1


Вы не можете начинать темы
Вы не можете отвечать на сообщения
Вы не можете редактировать свои сообщения
Вы не можете удалять свои сообщения
Вы не можете голосовать в опросах
Вы не можете прикреплять файлы к сообщениям
Вы не можете скачивать файлы

!ВНИМАНИЕ!
Сайт не предоставляет электронные версии произведений, а занимается лишь коллекционированием и каталогизацией ссылок, присылаемых и публикуемых на форуме нашими читателями. Если вы являетесь правообладателем какого-либо представленного материала и не желаете, чтобы ссылка на него находилась в нашем каталоге, свяжитесь с нами, и мы незамедлительно удалим ее. Файлы для обмена на трекере предоставлены пользователями сайта, и администрация не несет ответственности за их содержание. Просьба не заливать файлы, защищенные авторскими правами, а также файлы нелегального содержания!