Ивановский Торрент трекер
Яндекс.Погода
 

[Цитировать]
HUNTER

Dune / Live!
Жанр: Hard Trance, Happy Hardcore
Год издания: 1996
Издатель (лейбл): Orbit Records
Номер по каталогу: 8 42182 2
Аудиокодек: FLAC (*.flac)
Тип рипа: image+.cue
Битрейт аудио: lossless
Продолжительность: 42:50
Источник (релизер): собственный рип
Наличие сканов в содержимом раздачи: да
Треклист:
01. Dune - Hallo Rastatt [00:28]
02. Dune - Hand in Hand [06:08]
03. Dune - Can't Stop Raving [05:51]
04. Dune - Around the World [05:16]
05. Dune - Rainbow to the Stars [07:25]
06. Dune - Rising [00:26]
07. Dune - Million Miles From Home [04:22]
08. Dune - Hardcore Vibes [05:56]
09. Dune - Expedicion [05:47]
10. Dune - Verena's Birthday Party [01:06]

Лог создания рипа

Exact Audio Copy V1.0 beta 3 from 29. August 2011
EAC extraction logfile from 12. January 2013, 18:10
Dune / Live!
Used drive : PLEXTOR DVDR PX-755A Adapter: 1 ID: 1
Read mode : SecureUtilize accurate stream : YesDefeat audio cache : YesMake use of C2 pointers : No
Read offset correction : 30Overread into Lead-In and Lead-Out : YesFill up missing offset samples with silence : YesDelete leading and trailing silent blocks : NoNull samples used in CRC calculations : YesUsed interface : Native Win32 interface for Win NT & 2000
Used output format : User Defined EncoderSelected bitrate : 128 kBit/sQuality : HighAdd ID3 tag : NoCommand line compressor : C:\Program Files (x86)\FLAC\flac.exeAdditional command line options : -V -8 -T "Date=%year%" -T "COMMENT=ripped by Andy aka yetiisyou" -T "Genre=%genre%" %source%
TOC of the extracted CD
Track | Start | Length | Start sector | End sector --------------------------------------------------------- 1 | 0:00.00 | 0:28.02 | 0 | 2101 2 | 0:28.02 | 6:08.73 | 2102 | 29774 3 | 6:37.00 | 5:51.30 | 29775 | 56129 4 | 12:28.30 | 5:16.45 | 56130 | 79874 5 | 17:45.00 | 7:25.00 | 79875 | 113249 6 | 25:10.00 | 0:26.73 | 113250 | 115272 7 | 25:36.73 | 4:22.68 | 115273 | 134990 8 | 29:59.66 | 5:56.39 | 134991 | 161729 9 | 35:56.30 | 5:47.00 | 161730 | 187754 10 | 41:43.30 | 1:06.49 | 187755 | 192753
Range status and errors
Selected range
Filename E:\!Rips\Dune - Live! [Orbit Records - 8 42182 2] [1996]\Dune - Live!.wav
Peak level 98.8 % Extraction speed 2.5 X Range quality 100.0 % Test CRC 65AA1258 Copy CRC 65AA1258 Copy OK
No errors occurred
AccurateRip summary
Track 1 accurately ripped (confidence 2) [4B1BF672] (AR v2)Track 2 accurately ripped (confidence 2) [B415171E] (AR v2)Track 3 accurately ripped (confidence 2) [8EF4FC02] (AR v2)Track 4 accurately ripped (confidence 2) [495805C8] (AR v2)Track 5 accurately ripped (confidence 2) [5335DF81] (AR v2)Track 6 accurately ripped (confidence 2) [3B72ADE3] (AR v2)Track 7 accurately ripped (confidence 2) [1ECCA3B9] (AR v2)Track 8 accurately ripped (confidence 2) [99544318] (AR v2)Track 9 accurately ripped (confidence 2) [1D0B7656] (AR v2)Track 10 accurately ripped (confidence 19) [B0A29080] (AR v1)
All tracks accurately ripped
End of status report
---- CUETools DB Plugin V2.1.3
[CTDB TOCID: yeWtuUpmMg1EGNoRGSOaE86e3Po-] found, Submit result: yeWtuUpmMg1EGNoRGSOaE86e3Po- has been confirmed[da766632] (3/3) Accurately ripped
==== Log checksum 799FF7F6D007AF516F8829EAC793C8FDB8914E0287BBD901C7AAF7998D248C17 ====

Содержание индексной карты (.CUE)

REM DATE 1996REM DISCID 740A0A0AREM COMMENT "ExactAudioCopy v1.0b3"PERFORMER "Dune"TITLE "Live!"FILE "Dune - Live!.flac" WAVE TRACK 01 AUDIO TITLE "Hallo Rastatt" PERFORMER "Dune" FLAGS DCP INDEX 01 00:00:00 TRACK 02 AUDIO TITLE "Hand in Hand" PERFORMER "Dune" FLAGS DCP INDEX 01 00:28:02 TRACK 03 AUDIO TITLE "Can't Stop Raving" PERFORMER "Dune" FLAGS DCP INDEX 01 06:37:00 TRACK 04 AUDIO TITLE "Around the World" PERFORMER "Dune" FLAGS DCP INDEX 01 12:28:30 TRACK 05 AUDIO TITLE "Rainbow to the Stars" PERFORMER "Dune" FLAGS DCP INDEX 01 17:45:00 TRACK 06 AUDIO TITLE "Rising" PERFORMER "Dune" FLAGS DCP INDEX 01 25:10:00 TRACK 07 AUDIO TITLE "Million Miles From Home" PERFORMER "Dune" FLAGS DCP INDEX 01 25:36:73 TRACK 08 AUDIO TITLE "Hardcore Vibes" PERFORMER "Dune" FLAGS DCP INDEX 01 29:59:66 TRACK 09 AUDIO TITLE "Expedicion" PERFORMER "Dune" FLAGS DCP INDEX 01 35:56:30 TRACK 10 AUDIO TITLE "Verena's Birthday Party" PERFORMER "Dune" FLAGS DCP INDEX 01 41:43:30



Показать сообщения:    

Текущее время: 15-Дек 14:16

Часовой пояс: UTC ± 0


Вы не можете начинать темы
Вы не можете отвечать на сообщения
Вы не можете редактировать свои сообщения
Вы не можете удалять свои сообщения
Вы не можете голосовать в опросах
Вы не можете прикреплять файлы к сообщениям
Вы не можете скачивать файлы

!ВНИМАНИЕ!
Сайт не предоставляет электронные версии произведений, а занимается лишь коллекционированием и каталогизацией ссылок, присылаемых и публикуемых на форуме нашими читателями. Если вы являетесь правообладателем какого-либо представленного материала и не желаете, чтобы ссылка на него находилась в нашем каталоге, свяжитесь с нами, и мы незамедлительно удалим ее. Файлы для обмена на трекере предоставлены пользователями сайта, и администрация не несет ответственности за их содержание. Просьба не заливать файлы, защищенные авторскими правами, а также файлы нелегального содержания!