Важное объявление!
У Нас Все раздачи мультитрекерные, при нуле пиров в релизах, можете смело вставать на закачку!
Статистика раздачи
Размер:     |    Зарегистрирован:     |    Скачан:     |   
Нет
 
     
 
 
Автор Сообщение

HUNTER

Стаж:
5 лет
Сообщений:
67945

Репутация: 101

[+] [-]
Вне форума [Профиль] [ЛС]

VA - The No.1 Hardcore Album: The Oldskool Mix
Жанр: Happy Hardcore, UK Hardcore
Страна-производитель диска: UK
Год издания: 2007
Издатель (лейбл): Decadance Recordings
Номер по каталогу: DECESS23
Аудиокодек: FLAC (*.flac)
Тип рипа: image+.cue
Битрейт аудио: lossless
Продолжительность: 5:08:11
Источник (релизер): Диск из личной коллекции
Наличие сканов в содержимом раздачи: да
Треклист:
CD1: (1:17:18)
01. SMD – SMD#1 (2007 Remix) (4:55)
02. Slipmatt – Hear Me (5:54)
03. Different Vibe – Can You Feel It (5:21)
04. DJ Seduction – Samplemania (4:34)
05. DJ Dougal & DJ Vibes – Feel Free (4:43)
06. Billy "Daniel" Bunter & J.D.S. – Music Is Moods (Ramos & Supreme Remix) (5:36)
07. Billy "Daniel" Bunter – The Way I Feel (5:05)
08. J.D.S. Feat. Corelle – Higher Love (5:34)
09. A Sense Of Summer – On Top (Hixxy Remix) (4:30)
10. Billy "Daniel" Bunter & J.D.S. – Let It Lift You (5:12)
11. Scott Brown – Now Is The Time (4:13)
12. DJ Ham, DJ Demo & Justin Time Feat. Beck* – Here I Am (5:13)
13. Billy "Daniel" Bunter & J.D.S. – Come Alive (5:27)
14. Dougal & Eruption – Party Time (5:39)
15. GBT Inc – Better Run (5:23)

CD2: (1:17:20)

01. Billy "Daniel" Bunter & D-Zyne Feat. Gem – Ride Like The Wind (5:06)
02. SMD – SMD#3 (4:16)
03. N-Zo & DJ Invincible – Funky Sensation (Billy "Daniel" Bunter Remix) (5:03)
04. Vibes & Wishdokta – Feel So Good (5:37)
05. Jimmy J & Cru-L-T – Take Me Away (Slipmatt Remix) (4:51)
06. Slipmatt – Rock This Place (5:08)
07. Vibes & Wishdokta – No More Tears (4:47)
08. Sy & Demo – Devotion (4:58)
09. Vampire, The – Technostorm (Sharkey Remix) (5:19)
10. Future Collective – Look For The Truth (5:56)
11. Fade & Alchemist – Keep On Trying (Slipmatt Remix) (5:53)
12. Slipmatt & Eruption – Sunshine (5:42)
13. Triple J – Follow The Sun (5:06)
14. Bang The Future – Don't Try & Hide (4:29)
15. Billy "Daniel" Bunter & Sy – Connect Your Step (5:09)

CD3: (1:17:26)

01. Divine Inspiration – The Way (Put Your Hand In My Hand) (Breeze & Styles Remix) (4:30)
02. CLSM – John Peel Is Not Enough (5:25)
03. UK Hardcore – Round & Round (Sy & Unknown Remix) (5:29)
04. GBT Inc Feat. Alison Wade – Better Day (Dougal & Gammer Remix) (4:54)
05. Bang The Future Feat. Malaya – Real World (Breeze & Styles Remix) (4:51)
06. Asa & S1 Feat. Lou Lou – Makin' Me Wanna Dance (Sy & Unknown Remix) (5:32)
07. Hardcore Masif – Cold As Ice (5:16)
08. CLSM & Lisa Abbott – Timebomb (5:18)
09. GBT Inc – Burn Motherfucker (UFO Remix) (4:47)
10. UK Hardcore Feat. Niki Mak – Need Your Emotion (Dougal & Gammer Remix) (5:29)
11. Dreadhed – On Fire (5:23)
12. Sy & Unknown Feat. Lou Lou – Caught Up In Your Love (5:09)
13. Fergus Mayhem – Take Control (5:07)
14. BK – Playing With Knives (Hixxy Remix) (5:15)
15. UK Hardcore – Sounds Running Through Your Mind (Gammer Remix) (5:03)

CD4: (1:16:06)

01. Brisk & Ham – Crazy Love (5:42)
02. DJ Sammy – Sunlight (Breeze & Styles Remix) (5:27)
03. BeatFreakz – Somebody's Watching Me (Dougal & Gammer Remix) (4:31)
04. Slipmatt & Slam – Express (Al Storm Remix) (5:12)
05. Sy & Unknown Feat. Lou Lou – U R My Phantasy (5:31)
06. Angel City – Sunrise (Dougal & Gammer Remix) (5:39)
07. CLSM – Reaching Out (Billy "Daniel" Bunter & CLSM Remix) (4:38)
08. Slippery Project – Jump Around (Sy & Unknown Remix) (4:58)
09. SMD – SMD#4 (Al Storm Remix) (5:07)
10. DJ Demo – Your Mine 2007 (Slipmatt Remix) (3:51)
11. Scott Brown – Turn Up The Music (Breeze & Styles Remix) (5:09)
12. CLSM – Free Your Mind (Darren Styles Remix) (5:33)
13. D.O.N.S. Feat. Technotronic – Pump Up The Jam (Billy "Daniel" Bunter & Sparky Remix) (4:41)
14. Bang The Future – Body Slam (Sy & Unknown Mix) (4:58)
15. UK Hardcore – This Is What You All Have Been Waiting For (5:04)

-

Лог создания рипа CD1

Exact Audio Copy V0.99 prebeta 4 from 23. January 2008
Отчёт EAC об извлечении, выполненном 16. мая 2013, 19:06
Various / The No.1 Hardcore The Old Skool Mix Album (CD1)
Дисковод: Optiarc DVD RW AD-7261S Adapter: 1 ID: 1
Режим чтения : ДостоверностьИспользование точного потока : ДаОтключение кэша аудио : ДаИспользование указателей C2 : Нет
Коррекция смещения при чтении : 48Способность читать области Lead-in и Lead-out : НетЗаполнение пропущенных сэмплов тишиной : ДаУдаление блоков с тишиной в начале и конце : НетПри вычислениях CRC использовались нулевые сэмплы : ДаИнтерфейс : Встроенный Win32-интерфейс для Win NT/2000
Выходной формат : Внутренние WAV-операцииФормат сэмплов : 44.100 Гц; 16 бит; стерео
TOC извлечённого CD
Трек | Старт | Длительность | Начальный сектор | Конечный сектор --------------------------------------------------------------------- 1 | 0:00.00 | 4:54.58 | 0 | 22107 2 | 4:54.58 | 5:54.03 | 22108 | 48660 3 | 10:48.61 | 5:21.11 | 48661 | 72746 4 | 16:09.72 | 4:34.07 | 72747 | 93303 5 | 20:44.04 | 4:42.72 | 93304 | 114525 6 | 25:27.01 | 5:36.02 | 114526 | 139727 7 | 31:03.03 | 5:04.51 | 139728 | 162578 8 | 36:07.54 | 5:33.55 | 162579 | 187608 9 | 41:41.34 | 4:30.12 | 187609 | 207870 10 | 46:11.46 | 5:12.25 | 207871 | 231295 11 | 51:23.71 | 4:12.53 | 231296 | 250248 12 | 55:36.49 | 5:12.65 | 250249 | 273713 13 | 60:49.39 | 5:27.02 | 273714 | 298240 14 | 66:16.41 | 5:39.05 | 298241 | 323670 15 | 71:55.46 | 5:22.64 | 323671 | 347884
Характеристики диапазона извлечения и сообщения об ошибках
Выбранный диапазон
Имя файла C:\Users\Meijin\Desktop\Новая папка (4)\Various - The No.1 Hardcore The Old Skool Mix Album (CD1).wav
Пиковый уровень 98.8 % Качество диапазона 100.0 % CRC теста D2A91A67 CRC копии D2A91A67 Копирование... OK
Ошибок не произошло
AccurateRip: сводка
Трек 1 нет в базе данныхТрек 2 нет в базе данныхТрек 3 нет в базе данныхТрек 4 нет в базе данныхТрек 5 нет в базе данныхТрек 6 нет в базе данныхТрек 7 нет в базе данныхТрек 8 нет в базе данныхТрек 9 нет в базе данныхТрек 10 нет в базе данныхТрек 11 нет в базе данныхТрек 12 нет в базе данныхТрек 13 нет в базе данныхТрек 14 нет в базе данныхТрек 15 нет в базе данных
Ни одного трека нет в базе AccurateRip
Конец отчёта

Лог создания рипа CD2

Exact Audio Copy V0.99 prebeta 4 from 23. January 2008
Отчёт EAC об извлечении, выполненном 16. мая 2013, 19:42
Various / The No. 1 Hardcore The Old Skool Mix Album (CD2)
Дисковод: Optiarc DVD RW AD-7261S Adapter: 1 ID: 1
Режим чтения : ДостоверностьИспользование точного потока : ДаОтключение кэша аудио : ДаИспользование указателей C2 : Нет
Коррекция смещения при чтении : 48Способность читать области Lead-in и Lead-out : НетЗаполнение пропущенных сэмплов тишиной : ДаУдаление блоков с тишиной в начале и конце : НетПри вычислениях CRC использовались нулевые сэмплы : ДаИнтерфейс : Встроенный Win32-интерфейс для Win NT/2000
Выходной формат : Внутренние WAV-операцииФормат сэмплов : 44.100 Гц; 16 бит; стерео
TOC извлечённого CD
Трек | Старт | Длительность | Начальный сектор | Конечный сектор --------------------------------------------------------------------- 1 | 0:00.00 | 5:05.44 | 0 | 22918 2 | 5:05.44 | 4:16.21 | 22919 | 42139 3 | 9:21.65 | 5:02.66 | 42140 | 64855 4 | 14:24.56 | 5:36.62 | 64856 | 90117 5 | 20:01.43 | 4:51.07 | 90118 | 111949 6 | 24:52.50 | 5:07.63 | 111950 | 135037 7 | 30:00.38 | 4:46.73 | 135038 | 156560 8 | 34:47.36 | 4:57.55 | 156561 | 178890 9 | 39:45.16 | 5:18.49 | 178891 | 202789 10 | 45:03.65 | 5:56.20 | 202790 | 229509 11 | 51:00.10 | 5:53.08 | 229510 | 255992 12 | 56:53.18 | 5:42.07 | 255993 | 281649 13 | 62:35.25 | 5:06.31 | 281650 | 304630 14 | 67:41.56 | 4:29.04 | 304631 | 324809 15 | 72:10.60 | 5:09.12 | 324810 | 347996
Характеристики диапазона извлечения и сообщения об ошибках
Выбранный диапазон
Имя файла C:\Users\Meijin\Desktop\Новая папка (4)\Various - The No. 1 Hardcore The Old Skool Mix Album (CD2).wav
Пиковый уровень 98.8 % Качество диапазона 100.0 % CRC теста 5C0CBC89 CRC копии 5C0CBC89 Копирование... OK
Ошибок не произошло
AccurateRip: сводка
Трек 1 нет в базе данныхТрек 2 нет в базе данныхТрек 3 нет в базе данныхТрек 4 нет в базе данныхТрек 5 нет в базе данныхТрек 6 нет в базе данныхТрек 7 нет в базе данныхТрек 8 нет в базе данныхТрек 9 нет в базе данныхТрек 10 нет в базе данныхТрек 11 нет в базе данныхТрек 12 нет в базе данныхТрек 13 нет в базе данныхТрек 14 нет в базе данныхТрек 15 нет в базе данных
Ни одного трека нет в базе AccurateRip
Конец отчёта

Лог создания рипа CD3

Exact Audio Copy V0.99 prebeta 4 from 23. January 2008
Отчёт EAC об извлечении, выполненном 16. мая 2013, 20:21
Various / The No. 1 Hardcore The Old Skool Mix Album (CD3)
Дисковод: Optiarc DVD RW AD-7261S Adapter: 1 ID: 1
Режим чтения : ДостоверностьИспользование точного потока : ДаОтключение кэша аудио : ДаИспользование указателей C2 : Нет
Коррекция смещения при чтении : 48Способность читать области Lead-in и Lead-out : НетЗаполнение пропущенных сэмплов тишиной : ДаУдаление блоков с тишиной в начале и конце : НетПри вычислениях CRC использовались нулевые сэмплы : ДаИнтерфейс : Встроенный Win32-интерфейс для Win NT/2000
Выходной формат : Внутренние WAV-операцииФормат сэмплов : 44.100 Гц; 16 бит; стерео
TOC извлечённого CD
Трек | Старт | Длительность | Начальный сектор | Конечный сектор --------------------------------------------------------------------- 1 | 0:00.00 | 4:30.26 | 0 | 20275 2 | 4:30.26 | 5:24.62 | 20276 | 44637 3 | 9:55.13 | 5:29.20 | 44638 | 69332 4 | 15:24.33 | 4:53.50 | 69333 | 91357 5 | 20:18.08 | 4:51.31 | 91358 | 113213 6 | 25:09.39 | 5:32.00 | 113214 | 138113 7 | 30:41.39 | 5:15.43 | 138114 | 161781 8 | 35:57.07 | 5:17.55 | 161782 | 185611 9 | 41:14.62 | 4:46.48 | 185612 | 207109 10 | 46:01.35 | 5:29.19 | 207110 | 231803 11 | 51:30.54 | 5:22.60 | 231804 | 256013 12 | 56:53.39 | 5:08.41 | 256014 | 279154 13 | 62:02.05 | 5:06.34 | 279155 | 302138 14 | 67:08.39 | 5:14.55 | 302139 | 325743 15 | 72:23.19 | 5:03.09 | 325744 | 348477
Характеристики диапазона извлечения и сообщения об ошибках
Выбранный диапазон
Имя файла C:\Users\Meijin\Desktop\Новая папка (4)\Various - The No. 1 Hardcore The Old Skool Mix Album (CD3).wav
Пиковый уровень 98.8 % Качество диапазона 100.0 % CRC теста D12427AE CRC копии D12427AE Копирование... OK
Ошибок не произошло
AccurateRip: сводка
Трек 1 нет в базе данныхТрек 2 нет в базе данныхТрек 3 нет в базе данныхТрек 4 нет в базе данныхТрек 5 нет в базе данныхТрек 6 нет в базе данныхТрек 7 нет в базе данныхТрек 8 нет в базе данныхТрек 9 нет в базе данныхТрек 10 нет в базе данныхТрек 11 нет в базе данныхТрек 12 нет в базе данныхТрек 13 нет в базе данныхТрек 14 нет в базе данныхТрек 15 нет в базе данных
Ни одного трека нет в базе AccurateRip
Конец отчёта

Лог создания рипа CD4

Exact Audio Copy V0.99 prebeta 4 from 23. January 2008
Отчёт EAC об извлечении, выполненном 16. мая 2013, 20:57
Various / The No. 1 Hardcore The Old Skool Mix Album (CD4)
Дисковод: Optiarc DVD RW AD-7261S Adapter: 1 ID: 1
Режим чтения : ДостоверностьИспользование точного потока : ДаОтключение кэша аудио : ДаИспользование указателей C2 : Нет
Коррекция смещения при чтении : 48Способность читать области Lead-in и Lead-out : НетЗаполнение пропущенных сэмплов тишиной : ДаУдаление блоков с тишиной в начале и конце : НетПри вычислениях CRC использовались нулевые сэмплы : ДаИнтерфейс : Встроенный Win32-интерфейс для Win NT/2000
Выходной формат : Внутренние WAV-операцииФормат сэмплов : 44.100 Гц; 16 бит; стерео
TOC извлечённого CD
Трек | Старт | Длительность | Начальный сектор | Конечный сектор --------------------------------------------------------------------- 1 | 0:00.00 | 5:41.35 | 0 | 25609 2 | 5:41.35 | 5:27.13 | 25610 | 50147 3 | 11:08.48 | 4:31.04 | 50148 | 70476 4 | 15:39.52 | 5:11.65 | 70477 | 93866 5 | 20:51.42 | 5:30.52 | 93867 | 118668 6 | 26:22.19 | 5:39.28 | 118669 | 144121 7 | 32:01.47 | 4:38.21 | 144122 | 164992 8 | 36:39.68 | 4:57.49 | 164993 | 187316 9 | 41:37.42 | 5:06.73 | 187317 | 210339 10 | 46:44.40 | 3:50.32 | 210340 | 227621 11 | 50:34.72 | 5:08.51 | 227622 | 250772 12 | 55:43.48 | 5:39.02 | 250773 | 276199 13 | 61:22.50 | 4:41.16 | 276200 | 297290 14 | 66:03.66 | 4:58.18 | 297291 | 319658 15 | 71:02.09 | 5:04.10 | 319659 | 342468
Характеристики диапазона извлечения и сообщения об ошибках
Выбранный диапазон
Имя файла C:\Users\Meijin\Desktop\Новая папка (4)\Various - The No. 1 Hardcore The Old Skool Mix Album (CD4).wav
Пиковый уровень 98.8 % Качество диапазона 100.0 % CRC теста 8519042A CRC копии 8519042A Копирование... OK
Ошибок не произошло
AccurateRip: сводка
Трек 1 точное извлечение (доверие 2) [9B0ADD18]Трек 2 точное извлечение (доверие 2) [2B13B78F]Трек 3 точное извлечение (доверие 2) [D16CF254]Трек 4 точное извлечение (доверие 2) [2AF621B1]Трек 5 точное извлечение (доверие 2) [051EC6F5]Трек 6 точное извлечение (доверие 2) [E5221093]Трек 7 точное извлечение (доверие 2) [50F07007]Трек 8 точное извлечение (доверие 2) [1180B174]Трек 9 точное извлечение (доверие 2) [037E5034]Трек 10 точное извлечение (доверие 2) [452D6ADB]Трек 11 точное извлечение (доверие 2) [FF5019FC]Трек 12 точное извлечение (доверие 2) [C1D24CC2]Трек 13 точное извлечение (доверие 2) [F6EC7876]Трек 14 точное извлечение (доверие 2) [6A91F922]Трек 15 точное извлечение (доверие 2) [B8871650]
Все треки извлечены точно
Конец отчёта

_________________
Показать сообщения:    

Текущее время: Сегодня 02:48

Часовой пояс: GMT



Вы не можете начинать темы
Вы не можете отвечать на сообщения
Вы не можете редактировать свои сообщения
Вы не можете удалять свои сообщения
Вы не можете голосовать в опросах
Вы не можете прикреплять файлы к сообщениям
Вы не можете скачивать файлы