(Happy Hardcore, UK Hardcore) VA - Bonkers - CD Collection - 1996-2008, /выпуски 1-17, включая переиздание 11-го, Best, Original Hardcore, John Peel Show/, FLAC (image+.cue), lossless :: Ивановский Торрент трекер
Важное объявление!
У Нас Все раздачи мультитрекерные, при нуле пиров в релизах, можете смело вставать на закачку!
Статистика раздачи
Размер:     |    Зарегистрирован:     |    Скачан:     |   
Нет
 
     
 
 
Автор Сообщение

HUNTER

Стаж:
4 года 11 месяцев
Сообщений:
66066

Репутация: 101

[+] [-]
Вне форума [Профиль] [ЛС]

Bonkers - CD CollectionЖанр: Happy Hardcore, UK Hardcore
Страна-производитель диска: Великобритания
Год издания: 1996-2009
Издатель (лейбл): React Music, Resist Music, Universal Music TV
Аудиокодек: FLAC (*.flac)
Тип рипа: image+.cue
Битрейт аудио: lossless
Источник (релизер): Диски из личной коллекции
Наличие сканов в содержимом раздачи: да 600 dpi (*.jpg)

VA - Best Of Bonkers - Hardcore Generation - 2006, [3xCD], (Resist Music - [RESISTCD82]) /3:38:10/

Треклист:
CD1: Mixed By Hixxy & Re-Con (1:09:38)
01. Ikon - Give Yourself To Me (Fade & Bananaman Remix)
02. J.D.S. - Higher Love (Slipmatt Remix)
03. Hixxy & Sunset - People Party (Remix)
04. Force & Styles - Harmony
05. Vampire - Techno Storm (Sharkey Remix)
06. Force & Styles - Wonderland
07. E-Logic & DNA - Kick Your Legs In The Air
08. O.M.G. - The One
09. Triple J - Have It All (Pan Mix)
10. Antisocial - 24-7
11. DJ Paul Elstak - Don't Leave Me Alone (Hardcore Mix)
12. Critical Mass - Burnin' Love (DJ Weirdo & DJ Sim 173.683 Remix)
13. Antisocial - Forever Young
14. Wedlock - Ganjaman
15. Lock Jaw - Deep In The Underground
16. Phoenix - Now Who's In Control
17. Diss Reaction - Jiiieehaaaa
18. Lock Jaw - Reactor
19. Nosferatu - The Future
20. Wedlock - I'm The Fuck You Man

CD2: Mixed By Druid & Sharkey (1:19:27)

01. Hixxy & Sharkey - Toytown (Exclusive Intro Mix)
02. Seb - Rainbow Islands (Sharkey Remix)
03. Druid & Sharkey - Bonkers Anthem
04. Helix & Tekno Dred - U R Everything
05. Druid & Kevin Energy - Future Dimensions
06. Brisk & Trixxy - Back To The Top
07. Bang The Future - Body Slam
08. Sharkey - Revolutions Pt 2 (Slipmatt Remix)
09. DJ Slam - Influence (Exclusive Bonkers Remix)
10. DJ Fury - Lemonade Raygun
11. Kevin Energy - Vertigo
12. DJ Fury - De Sensitize 98'
13. Kevin Energy - Waves Of Desire
14. Sharkey - The Awakening
15. K Complex - Adagio
16. DJ Kaos - Can You Feel It (Acid & Bass VIP Mix)
17. Ethos & Kaos - Get Fucked
18. CLSM - John Peel (Is Not Enough)
19. Kaos & Ethos - Technorocker
20. CLSM & Sharkey - Wicked MC
21. Marc Smith - Boom 'N' Pow (Exclusive Marc Smith Bonkers Remix)
22. Alas Smith & Sharkey - Oh No!
23. Helix - Now Control
24. Sharkey - Product Of Society
25. DJ Eclipse - Ultraworld 5

CD3: Mixed By Scott Brown (0:59:03)

01. Scott Brown & Hyperbass - We're Droppin' This (Plus System Remix)
02. Plus System - Make You Freak
03. Plus System - Prince Of Darkness
04. Scott Brown - Turn Up The Music (Breeze & Styles Remix)
05. Plus System - Commence
06. Scott Brown - Wakey Wakey
07. Plus System - Neckbreaker
08. Sy & Unknown - Bring Me Round To Love (Scott Brown's Evolution Remix)
09. Scott Brown - Rock You Softly
10. Scott Brown - All About You (Styles & Breeze Remix)
11. Scott Brown - Taking Drugs?
12. Plus System - This Is How We Do It
13. Scott Brown - Elysium+
14. Brisk & Ham - Angel Eyes
15. Tommyknocker - Twist
16. Art Of Fighters - Earthquake
17. Scott Brown - Ghosts
18. Hard Creation - Bastard / Asshole
19. Viper, The & Tommyknocker - The Prophecy Unfolds (Tha Playah Remix)
20. Scott Brown - Boomstick

-

Лог создания рипа CD1

Exact Audio Copy V0.99 prebeta 4 from 23. January 2008
Отчёт EAC об извлечении, выполненном 19. февраля 2013, 18:18
Various / Best Of Bonkers (CD1) - Hixxy & Re-Con
Дисковод: Optiarc DVD RW AD-7261S Adapter: 1 ID: 1
Режим чтения : ДостоверностьИспользование точного потока : ДаОтключение кэша аудио : ДаИспользование указателей C2 : Нет
Коррекция смещения при чтении : 48Способность читать области Lead-in и Lead-out : НетЗаполнение пропущенных сэмплов тишиной : ДаУдаление блоков с тишиной в начале и конце : НетПри вычислениях CRC использовались нулевые сэмплы : ДаИнтерфейс : Встроенный Win32-интерфейс для Win NT/2000
Выходной формат : Внутренние WAV-операцииФормат сэмплов : 44.100 Гц; 16 бит; стерео
TOC извлечённого CD
Трек | Старт | Длительность | Начальный сектор | Конечный сектор --------------------------------------------------------------------- 1 | 0:00.00 | 4:50.41 | 0 | 21790 2 | 4:50.41 | 4:05.45 | 21791 | 40210 3 | 8:56.11 | 4:50.17 | 40211 | 61977 4 | 13:46.28 | 4:16.74 | 61978 | 81251 5 | 18:03.27 | 3:42.63 | 81252 | 97964 6 | 21:46.15 | 4:02.45 | 97965 | 116159 7 | 25:48.60 | 4:24.68 | 116160 | 136027 8 | 30:13.53 | 4:13.55 | 136028 | 155057 9 | 34:27.33 | 5:35.10 | 155058 | 180192 10 | 40:02.43 | 4:00.46 | 180193 | 198238 11 | 44:03.14 | 3:51.61 | 198239 | 215624 12 | 47:55.00 | 4:28.59 | 215625 | 235783 13 | 52:23.59 | 4:55.16 | 235784 | 257924 14 | 57:19.00 | 3:25.45 | 257925 | 273344 15 | 60:44.45 | 3:03.28 | 273345 | 287097 16 | 63:47.73 | 3:25.02 | 287098 | 302474 17 | 67:13.00 | 3:04.54 | 302475 | 316328 18 | 70:17.54 | 3:02.02 | 316329 | 329980 19 | 73:19.56 | 2:44.35 | 329981 | 342315 20 | 76:04.16 | 3:34.47 | 342316 | 358412
Характеристики диапазона извлечения и сообщения об ошибках
Выбранный диапазон
Имя файла C:\Users\Meijin\Desktop\Новая папка (4)\Various - Best Of Bonkers (CD1) - Hixxy & Re-Con.wav
Пиковый уровень 98.9 % Качество диапазона 100.0 % CRC теста CED5DBE3 CRC копии CED5DBE3 Копирование... OK
Ошибок не произошло
AccurateRip: сводка
Трек 1 точное извлечение (доверие 4) [70C64CEF]Трек 2 точное извлечение (доверие 4) [025D7A9C]Трек 3 точное извлечение (доверие 4) [30E477FF]Трек 4 точное извлечение (доверие 4) [8FAB61B4]Трек 5 точное извлечение (доверие 3) [029E8855]Трек 6 точное извлечение (доверие 3) [8B9547DE]Трек 7 точное извлечение (доверие 3) [A1DA63DE]Трек 8 точное извлечение (доверие 3) [25B98F1D]Трек 9 точное извлечение (доверие 3) [EFA9B7A7]Трек 10 точное извлечение (доверие 3) [B30E0860]Трек 11 точное извлечение (доверие 3) [7F573086]Трек 12 точное извлечение (доверие 3) [2246B6CD]Трек 13 точное извлечение (доверие 3) [796D0FAA]Трек 14 точное извлечение (доверие 3) [EF2ED8FD]Трек 15 точное извлечение (доверие 3) [83ABB37D]Трек 16 точное извлечение (доверие 3) [C5AE3102]Трек 17 точное извлечение (доверие 3) [EE33487A]Трек 18 точное извлечение (доверие 3) [130BE262]Трек 19 точное извлечение (доверие 3) [BB6DED5C]Трек 20 точное извлечение (доверие 3) [4FD2BA1C]
Все треки извлечены точно
Конец отчёта

Лог создания рипа CD2

Exact Audio Copy V0.99 prebeta 4 from 23. January 2008
Отчёт EAC об извлечении, выполненном 19. февраля 2013, 18:54
Various / Best Of Bonkers (CD2) - Druid & Sharkey
Дисковод: Optiarc DVD RW AD-7261S Adapter: 1 ID: 1
Режим чтения : ДостоверностьИспользование точного потока : ДаОтключение кэша аудио : ДаИспользование указателей C2 : Нет
Коррекция смещения при чтении : 48Способность читать области Lead-in и Lead-out : НетЗаполнение пропущенных сэмплов тишиной : ДаУдаление блоков с тишиной в начале и конце : НетПри вычислениях CRC использовались нулевые сэмплы : ДаИнтерфейс : Встроенный Win32-интерфейс для Win NT/2000
Выходной формат : Внутренние WAV-операцииФормат сэмплов : 44.100 Гц; 16 бит; стерео
TOC извлечённого CD
Трек | Старт | Длительность | Начальный сектор | Конечный сектор --------------------------------------------------------------------- 1 | 0:00.00 | 2:53.66 | 0 | 13040 2 | 2:53.66 | 1:28.21 | 13041 | 19661 3 | 4:22.12 | 3:14.22 | 19662 | 34233 4 | 7:36.34 | 3:05.48 | 34234 | 48156 5 | 10:42.07 | 1:59.59 | 48157 | 57140 6 | 12:41.66 | 2:32.00 | 57141 | 68540 7 | 15:13.66 | 1:48.43 | 68541 | 76683 8 | 17:02.34 | 1:48.40 | 76684 | 84823 9 | 18:50.74 | 2:53.44 | 84824 | 97842 10 | 21:44.43 | 2:42.32 | 97843 | 110024 11 | 24:27.00 | 2:40.35 | 110025 | 122059 12 | 27:07.35 | 2:21.62 | 122060 | 132696 13 | 29:29.22 | 3:44.64 | 132697 | 149560 14 | 33:14.11 | 3:55.08 | 149561 | 167193 15 | 37:09.19 | 3:29.67 | 167194 | 182935 16 | 40:39.11 | 4:18.71 | 182936 | 202356 17 | 44:58.07 | 3:46.73 | 202357 | 219379 18 | 48:45.05 | 3:06.49 | 219380 | 233378 19 | 51:51.54 | 4:31.20 | 233379 | 253723 20 | 56:22.74 | 4:10.50 | 253724 | 272523 21 | 60:33.49 | 4:15.71 | 272524 | 291719 22 | 64:49.45 | 1:46.45 | 291720 | 299714 23 | 66:36.15 | 4:26.30 | 299715 | 319694 24 | 71:02.45 | 5:25.07 | 319695 | 344076 25 | 76:27.52 | 2:59.60 | 344077 | 357561
Характеристики диапазона извлечения и сообщения об ошибках
Выбранный диапазон
Имя файла C:\Users\Meijin\Desktop\Новая папка (4)\Various - Best Of Bonkers (CD2) - Druid & Sharkey.wav
Пиковый уровень 98.8 % Качество диапазона 100.0 % CRC теста 4F71DEBC CRC копии 4F71DEBC Копирование... OK
Ошибок не произошло
AccurateRip: сводка
Трек 1 точное извлечение (доверие 3) [DA2FA2C3]Трек 2 точное извлечение (доверие 3) [F5CD56FB]Трек 3 точное извлечение (доверие 3) [508EFCAD]Трек 4 точное извлечение (доверие 3) [7E1C4822]Трек 5 точное извлечение (доверие 3) [ED454DD4]Трек 6 точное извлечение (доверие 3) [37DAB90F]Трек 7 точное извлечение (доверие 3) [F11B6574]Трек 8 точное извлечение (доверие 3) [E67C08E0]Трек 9 точное извлечение (доверие 3) [326B8E65]Трек 10 точное извлечение (доверие 3) [AE04D099]Трек 11 точное извлечение (доверие 3) [87EB9862]Трек 12 точное извлечение (доверие 3) [B93A0062]Трек 13 точное извлечение (доверие 3) [43DE2B2A]Трек 14 точное извлечение (доверие 3) [4277514F]Трек 15 точное извлечение (доверие 3) [9C758AE4]Трек 16 точное извлечение (доверие 3) [DCEB5117]Трек 17 точное извлечение (доверие 3) [8EBCFD41]Трек 18 точное извлечение (доверие 3) [7EE56DC5]Трек 19 точное извлечение (доверие 3) [98246468]Трек 20 точное извлечение (доверие 3) [44DAD35E]Трек 21 точное извлечение (доверие 3) [D0E8CD71]Трек 22 точное извлечение (доверие 3) [4033774E]Трек 23 точное извлечение (доверие 3) [02755615]Трек 24 точное извлечение (доверие 3) [D93806B8]Трек 25 точное извлечение (доверие 3) [081C4819]
Все треки извлечены точно
Конец отчёта

Лог создания рипа CD3

Exact Audio Copy V0.99 prebeta 4 from 23. January 2008
Отчёт EAC об извлечении, выполненном 19. февраля 2013, 19:26
Various / Best Of Bonkers (CD3) - Scott Brown
Дисковод: Optiarc DVD RW AD-7261S Adapter: 1 ID: 1
Режим чтения : ДостоверностьИспользование точного потока : ДаОтключение кэша аудио : ДаИспользование указателей C2 : Нет
Коррекция смещения при чтении : 48Способность читать области Lead-in и Lead-out : НетЗаполнение пропущенных сэмплов тишиной : ДаУдаление блоков с тишиной в начале и конце : НетПри вычислениях CRC использовались нулевые сэмплы : ДаИнтерфейс : Встроенный Win32-интерфейс для Win NT/2000
Выходной формат : Внутренние WAV-операцииФормат сэмплов : 44.100 Гц; 16 бит; стерео
TOC извлечённого CD
Трек | Старт | Длительность | Начальный сектор | Конечный сектор --------------------------------------------------------------------- 1 | 0:00.00 | 3:44.64 | 0 | 16863 2 | 3:44.64 | 3:06.04 | 16864 | 30817 3 | 6:50.68 | 2:00.24 | 30818 | 39841 4 | 8:51.17 | 2:35.65 | 39842 | 51531 5 | 11:27.07 | 2:00.22 | 51532 | 60553 6 | 13:27.29 | 2:33.07 | 60554 | 72035 7 | 16:00.36 | 2:11.17 | 72036 | 81877 8 | 18:11.53 | 2:33.08 | 81878 | 93360 9 | 20:44.61 | 3:39.00 | 93361 | 109785 10 | 24:23.61 | 2:00.28 | 109786 | 118813 11 | 26:24.14 | 2:33.00 | 118814 | 130288 12 | 28:57.14 | 3:16.53 | 130289 | 145041 13 | 32:13.67 | 2:33.00 | 145042 | 156516 14 | 34:46.67 | 3:49.39 | 156517 | 173730 15 | 38:36.31 | 3:05.58 | 173731 | 187663 16 | 41:42.14 | 3:44.02 | 187664 | 204465 17 | 45:26.16 | 2:49.37 | 204466 | 217177 18 | 48:15.53 | 2:53.73 | 217178 | 230225 19 | 51:09.51 | 3:59.02 | 230226 | 248152 20 | 55:08.53 | 3:54.43 | 248153 | 265745
Характеристики диапазона извлечения и сообщения об ошибках
Выбранный диапазон
Имя файла C:\Users\Meijin\Desktop\Новая папка (4)\Various - Best Of Bonkers (CD3) - Scott Brown.wav
Пиковый уровень 98.9 % Качество диапазона 100.0 % CRC теста 238D0579 CRC копии 238D0579 Копирование... OK
Ошибок не произошло
AccurateRip: сводка
Трек 1 точное извлечение (доверие 4) [7B90A030]Трек 2 точное извлечение (доверие 4) [BE6D0217]Трек 3 точное извлечение (доверие 4) [FDF7930C]Трек 4 точное извлечение (доверие 3) [F5984813]Трек 5 точное извлечение (доверие 3) [8D7055D2]Трек 6 точное извлечение (доверие 3) [0CB90814]Трек 7 точное извлечение (доверие 2) [424F6EA3]Трек 8 точное извлечение (доверие 3) [DA6B5671]Трек 9 точное извлечение (доверие 3) [8DE46272]Трек 10 точное извлечение (доверие 3) [BDDD359D]Трек 11 точное извлечение (доверие 3) [20967405]Трек 12 точное извлечение (доверие 3) [695A4066]Трек 13 точное извлечение (доверие 3) [BFEFC45E]Трек 14 точное извлечение (доверие 3) [E7810B4F]Трек 15 точное извлечение (доверие 3) [D7E32350]Трек 16 точное извлечение (доверие 3) [84BBBEC8]Трек 17 точное извлечение (доверие 3) [22264966]Трек 18 точное извлечение (доверие 3) [15AACAEA]Трек 19 точное извлечение (доверие 3) [3ADF6ABD]Трек 20 точное извлечение (доверие 3) [AF70C89E]
Все треки извлечены точно
Конец отчёта

VA - Bonkers: The Original Hardcore - The Next Chapter - 2009, [3xCD], (Universal Music TV - [2707086]) /03:28:38/

Треклист:
CD1: Mixed by Sharkey (1:13:05)
01. Darwin Feat Fraz – We're Getting Faster (3:05)
02. Arkitech – When Tears Fall - Kaotik (4:50)
03. Ham – Jump 2 Da Groove 2009 (5:07)
04. Sharkey, Odyssey* & Arkitech – Black Rain (4:18)
05. Baby D – Let Me Be Your Fantasy (Darwin's "Arena Space 5" Remix) (4:31)
06. Sharkey & CLSM – Wikkid M.C (2009 Exclusive) (3:40)
07. Slippery Disco – Feeling High (Kevin Energy Remix) (4:31)
08. Brisk & Ham – Dance Don't Slip (2:54)
09. Sharkey – Never Say Die (Kevin Energy Remix) (5:03)
10. Sharkey – Today's The Day (Darwin Remix)(4:21)
11. Marc Smith & Gammer – Building Shaker (V.I.P Rmx) (2:51)
12. Al Storm – Jumpin (3:15)
13. S3RL – Here We Go (2:35)
14. Scooter – Jumping All Over The World (Sharkey & K-Complex Rmx) (3:38)
15. Scooter – Posse (I Need You On The Floor) (Weaver Rmx) (4:51)
16. Porn Kings v DJ Supreme – Up To Da Wildstyle (Gammer & Andy Whitby Remix) (2:56)
17. S3RL – Dealer (V.I.P Remix) (3:38)
18. Marc Smith & Darwin – Let The Bass Kick (4:27)
19. Kevin Energy – Freeform Will Never Die (2:36)

CD2: Mixed by Chris Unknown (1:08:50)

01. LMC v U2 – Take Me To The Clouds Above (Chris Unknown Remix)(3:20)
02. Styles & Breeze – Amigos (Chris Unknown Mix) (4:04)
03. Rampant DJs Featuring JT – Alabama (Sy & Unknown Remix) (4:04)
04. Insight Featuring Emily Reed – Heaven Help Me Now (3:41)
05. Topvibe vs DJ Sy – Pacman (2:59)
06. Chris Unknown & Re-Con – Welcome To The Trip (2:12)
07. Sy & Unknown – If You Believe (4:04)
08. Chris Unknown – Wanna Be Here With You (4:15)
09. Chris Unknown Featuring Grant Paterson – Come Together (5:11)
10. Dougal & Gammer – Guitar Hero (2:58)
11. Flip & Fill – Discoland (Chris Unknown's 2009 Remix) (3:42)
12. Scott Brown – Pilgrim (Sy & Unknown Remix) (3:41)
13. Phaze4 – You're Never Gonna Know (Scott Brown Remix) (5:11)
14. Sy & Unknown – Hardcore (4:15)
15. E-Type – Rain (Styles & Breeze Mix) (3:10)
16. Emily Reed – Your Love Is Shining (4:26)
17. Stykal Brix vs MC Storm – Cold As Ice (3:53)
18. Sy & Unknown Featuring Grant Paterson – Bring You Down (3:45)

CD3: Mixed by Hixxy (1:06:43)

01. Bo – Judgement Day (4:11)
02. Hixxy – R U Ready (4:07)
03. Darren Styles – Getting Better (Re-Con Remix) (4:21)
04. United In Dance Feat Lisa Marie (2) – Still The One (5:04)
05. Clear Vu – I Adore (Re-Con Mix) (3:48)
06. Hixxy – C.O.N (3:59)
07. CLSM – Free Your Mind (Darren Styles Remix) (4:21)
08. Hixxy & Styles – Elevator (4:10)
09. Clear Vu – Close To You (Re-Con Remix) (3:04)
10. Re-Con – Report To The Bassline (3:18)
11. CLSM & Cube::Hard – See You On The Other Side (2:58)
12. Hixxy & Squad-E – Beat Drop (4:45)
13. Squad-E – Lost Without You (4:10)
14. Gammer – Body Flow (2:54)
15. Styles & Breeze – Electric (3:32)
16. Styles & Breeze – You're My Angel (Scott Brown Remix) (4:00)
17. Hixxy & Styles – The Theme (4:02)

-

Лог создания рипа CD1

Exact Audio Copy V0.99 prebeta 4 from 23. January 2008
Отчёт EAC об извлечении, выполненном 14. февраля 2013, 11:16
Various / Bonkers - Original Hardcore (CD1)
Дисковод: Optiarc DVD RW AD-7261S Adapter: 1 ID: 1
Режим чтения : ДостоверностьИспользование точного потока : ДаОтключение кэша аудио : ДаИспользование указателей C2 : Нет
Коррекция смещения при чтении : 48Способность читать области Lead-in и Lead-out : НетЗаполнение пропущенных сэмплов тишиной : ДаУдаление блоков с тишиной в начале и конце : НетПри вычислениях CRC использовались нулевые сэмплы : ДаИнтерфейс : Встроенный Win32-интерфейс для Win NT/2000
Выходной формат : Внутренние WAV-операцииФормат сэмплов : 44.100 Гц; 16 бит; стерео
TOC извлечённого CD
Трек | Старт | Длительность | Начальный сектор | Конечный сектор --------------------------------------------------------------------- 1 | 0:00.00 | 3:04.73 | 0 | 13872 2 | 3:04.73 | 4:49.51 | 13873 | 35598 3 | 7:54.49 | 5:07.05 | 35599 | 58628 4 | 13:01.54 | 4:17.52 | 58629 | 77955 5 | 17:19.31 | 4:31.17 | 77956 | 98297 6 | 21:50.48 | 3:39.54 | 98298 | 114776 7 | 25:30.27 | 4:31.15 | 114777 | 135116 8 | 30:01.42 | 2:53.41 | 135117 | 148132 9 | 32:55.08 | 5:02.55 | 148133 | 170837 10 | 37:57.63 | 4:21.27 | 170838 | 190439 11 | 42:19.15 | 2:50.64 | 190440 | 203253 12 | 45:10.04 | 3:15.24 | 203254 | 217902 13 | 48:25.28 | 2:34.44 | 217903 | 229496 14 | 50:59.72 | 3:38.26 | 229497 | 245872 15 | 54:38.23 | 4:50.46 | 245873 | 267668 16 | 59:28.69 | 2:55.63 | 267669 | 280856 17 | 62:24.57 | 3:37.67 | 280857 | 297198 18 | 66:02.49 | 4:26.61 | 297199 | 317209 19 | 70:29.35 | 2:35.49 | 317210 | 328883
Характеристики диапазона извлечения и сообщения об ошибках
Выбранный диапазон
Имя файла C:\Users\Meijin\Desktop\Новая папка (4)\Various - Bonkers Original Hardcore (CD1).wav
Пиковый уровень 98.8 % Качество диапазона 100.0 % CRC теста FEDB60AE CRC копии FEDB60AE Копирование... OK
Ошибок не произошло
AccurateRip: сводка
Трек 1 точное извлечение (доверие 4) [BF051DE7]Трек 2 точное извлечение (доверие 4) [A62288DB]Трек 3 точное извлечение (доверие 4) [68586AF9]Трек 4 точное извлечение (доверие 4) [2B45E60D]Трек 5 точное извлечение (доверие 4) [F1B3FAF5]Трек 6 точное извлечение (доверие 4) [73F52969]Трек 7 точное извлечение (доверие 4) [9BBE07FA]Трек 8 точное извлечение (доверие 4) [7C6783FA]Трек 9 точное извлечение (доверие 4) [E4CB325A]Трек 10 точное извлечение (доверие 4) [73CB034F]Трек 11 точное извлечение (доверие 4) [4D342108]Трек 12 точное извлечение (доверие 4) [9880C603]Трек 13 точное извлечение (доверие 4) [905A4980]Трек 14 точное извлечение (доверие 4) [648226F4]Трек 15 точное извлечение (доверие 4) [4E00C823]Трек 16 точное извлечение (доверие 4) [4B6C32BE]Трек 17 точное извлечение (доверие 4) [E6F8C522]Трек 18 точное извлечение (доверие 4) [73B5B66D]Трек 19 точное извлечение (доверие 4) [595308E3]
Все треки извлечены точно
Конец отчёта

Лог создания рипа CD2

Exact Audio Copy V0.99 prebeta 4 from 23. January 2008
Отчёт EAC об извлечении, выполненном 14. февраля 2013, 11:55
Various Artists / Bonkers - The Original Hardcore (CD2)
Дисковод: Optiarc DVD RW AD-7261S Adapter: 1 ID: 1
Режим чтения : ДостоверностьИспользование точного потока : ДаОтключение кэша аудио : ДаИспользование указателей C2 : Нет
Коррекция смещения при чтении : 48Способность читать области Lead-in и Lead-out : НетЗаполнение пропущенных сэмплов тишиной : ДаУдаление блоков с тишиной в начале и конце : НетПри вычислениях CRC использовались нулевые сэмплы : ДаИнтерфейс : Встроенный Win32-интерфейс для Win NT/2000
Выходной формат : Внутренние WAV-операцииФормат сэмплов : 44.100 Гц; 16 бит; стерео
TOC извлечённого CD
Трек | Старт | Длительность | Начальный сектор | Конечный сектор --------------------------------------------------------------------- 1 | 0:00.00 | 3:19.60 | 0 | 14984 2 | 3:19.60 | 4:04.12 | 14985 | 33296 3 | 7:23.72 | 4:03.48 | 33297 | 51569 4 | 11:27.45 | 3:41.09 | 51570 | 68153 5 | 15:08.54 | 2:58.71 | 68154 | 81574 6 | 18:07.50 | 2:11.47 | 81575 | 91446 7 | 20:19.22 | 4:04.12 | 91447 | 109758 8 | 24:23.34 | 4:15.19 | 109759 | 128902 9 | 28:38.53 | 5:10.57 | 128903 | 152209 10 | 33:49.35 | 2:57.43 | 152210 | 165527 11 | 36:47.03 | 3:41.72 | 165528 | 182174 12 | 40:29.00 | 3:41.07 | 182175 | 198756 13 | 44:10.07 | 5:10.67 | 198757 | 222073 14 | 49:20.74 | 4:15.06 | 222074 | 241204 15 | 53:36.05 | 3:09.44 | 241205 | 255423 16 | 56:45.49 | 4:26.27 | 255424 | 275400 17 | 61:12.01 | 3:53.04 | 275401 | 292879 18 | 65:05.05 | 3:44.53 | 292880 | 309732
Характеристики диапазона извлечения и сообщения об ошибках
Выбранный диапазон
Имя файла C:\Users\Meijin\Desktop\Новая папка (4)\Various Artists - Bonkers - The Original Hardcore (CD2).wav
Пиковый уровень 100.0 % Качество диапазона 100.0 % CRC теста 4657E847 CRC копии 4657E847 Копирование... OK
Ошибок не произошло
AccurateRip: сводка
Трек 1 точное извлечение (доверие 4) [43B48E76]Трек 2 точное извлечение (доверие 4) [5789A826]Трек 3 точное извлечение (доверие 4) [BA0D5183]Трек 4 точное извлечение (доверие 4) [547FC62F]Трек 5 точное извлечение (доверие 4) [8AB392B9]Трек 6 точное извлечение (доверие 4) [F601ACA6]Трек 7 точное извлечение (доверие 4) [2AFFA91D]Трек 8 точное извлечение (доверие 4) [5E998B0A]Трек 9 точное извлечение (доверие 4) [0D70EEC0]Трек 10 точное извлечение (доверие 4) [7F5AFFE4]Трек 11 точное извлечение (доверие 4) [F2EF9D70]Трек 12 точное извлечение (доверие 4) [33801C85]Трек 13 точное извлечение (доверие 4) [1AF780A2]Трек 14 точное извлечение (доверие 4) [1C4ABBAB]Трек 15 точное извлечение (доверие 4) [900C868D]Трек 16 точное извлечение (доверие 4) [11A898A2]Трек 17 точное извлечение (доверие 4) [65D08333]Трек 18 точное извлечение (доверие 4) [63B660C6]
Все треки извлечены точно
Конец отчёта

Лог создания рипа CD3

Exact Audio Copy V0.99 prebeta 4 from 23. January 2008
Отчёт EAC об извлечении, выполненном 14. февраля 2013, 12:31
Various / Bonkers - The Original Hardcore (CD3)
Дисковод: Optiarc DVD RW AD-7261S Adapter: 1 ID: 1
Режим чтения : ДостоверностьИспользование точного потока : ДаОтключение кэша аудио : ДаИспользование указателей C2 : Нет
Коррекция смещения при чтении : 48Способность читать области Lead-in и Lead-out : НетЗаполнение пропущенных сэмплов тишиной : ДаУдаление блоков с тишиной в начале и конце : НетПри вычислениях CRC использовались нулевые сэмплы : ДаИнтерфейс : Встроенный Win32-интерфейс для Win NT/2000
Выходной формат : Внутренние WAV-операцииФормат сэмплов : 44.100 Гц; 16 бит; стерео
TOC извлечённого CD
Трек | Старт | Длительность | Начальный сектор | Конечный сектор --------------------------------------------------------------------- 1 | 0:00.00 | 4:10.60 | 0 | 18809 2 | 4:10.60 | 4:07.02 | 18810 | 37336 3 | 8:17.62 | 4:20.48 | 37337 | 56884 4 | 12:38.35 | 5:04.07 | 56885 | 79691 5 | 17:42.42 | 3:48.06 | 79692 | 96797 6 | 21:30.48 | 3:58.65 | 96798 | 114712 7 | 25:29.38 | 4:20.53 | 114713 | 134265 8 | 29:50.16 | 4:09.55 | 134266 | 152995 9 | 33:59.71 | 3:04.36 | 152996 | 166831 10 | 37:04.32 | 3:18.15 | 166832 | 181696 11 | 40:22.47 | 2:57.53 | 181697 | 195024 12 | 43:20.25 | 4:45.05 | 195025 | 216404 13 | 48:05.30 | 4:09.59 | 216405 | 235138 14 | 52:15.14 | 2:53.58 | 235139 | 248171 15 | 55:08.72 | 3:32.32 | 248172 | 264103 16 | 58:41.29 | 3:59.45 | 264104 | 282073 17 | 62:40.74 | 4:02.11 | 282074 | 300234
Характеристики диапазона извлечения и сообщения об ошибках
Выбранный диапазон
Имя файла C:\Users\Meijin\Desktop\Новая папка (4)\Various - Bonkers - The Original Hardcore (CD3).wav
Пиковый уровень 100.0 % Качество диапазона 100.0 % CRC теста E9ECD49F CRC копии E9ECD49F Копирование... OK
Ошибок не произошло
AccurateRip: сводка
Трек 1 точное извлечение (доверие 4) [94820B2E]Трек 2 точное извлечение (доверие 4) [456E52B9]Трек 3 точное извлечение (доверие 4) [907DBF53]Трек 4 точное извлечение (доверие 4) [49C4D200]Трек 5 точное извлечение (доверие 4) [8891D58A]Трек 6 точное извлечение (доверие 4) [6EAA29A0]Трек 7 точное извлечение (доверие 4) [99E52343]Трек 8 точное извлечение (доверие 4) [0EC3378A]Трек 9 точное извлечение (доверие 4) [F2B180D4]Трек 10 точное извлечение (доверие 4) [C7EE508B]Трек 11 точное извлечение (доверие 4) [D63F4C90]Трек 12 точное извлечение (доверие 4) [0D6D3D15]Трек 13 точное извлечение (доверие 4) [A2555809]Трек 14 точное извлечение (доверие 4) [CFB15AFD]Трек 15 точное извлечение (доверие 4) [D57C110C]Трек 16 точное извлечение (доверие 4) [A76DEB62]Трек 17 точное извлечение (доверие 4) [E00D3E11]
Все треки извлечены точно
Конец отчёта

VA - Bonkers - As Heard On The John Peel Show - 2004, (React Music - [REACTCD260]) /0:30:27/

Треклист:
01. Hixxy & MC Storm – Just Accept It (Hixxy Remix) (5:10)
02. UFO – Waiting (3:31)
03. Plus System – This Is How We Do It (3:23)
04. Yum-Yi – Tantric (5:38)
05. Darren Styles – Skydivin (3:23)
06. Dougal & Gammer – Know The Score (2:45)
07. Styles & Breeze – Electric (Bonkers Remix) (3:29)
08. Hixxy – C.O.N (3:04)-

Лог создания рипа

Exact Audio Copy V0.99 prebeta 4 from 23. January 2008
Отчёт EAC об извлечении, выполненном 14. марта 2013, 9:13
Various / Bonkers - John Peel Session
Дисковод: Optiarc DVD RW AD-7261S Adapter: 1 ID: 1
Режим чтения : ДостоверностьИспользование точного потока : ДаОтключение кэша аудио : ДаИспользование указателей C2 : Нет
Коррекция смещения при чтении : 48Способность читать области Lead-in и Lead-out : НетЗаполнение пропущенных сэмплов тишиной : ДаУдаление блоков с тишиной в начале и конце : НетПри вычислениях CRC использовались нулевые сэмплы : ДаИнтерфейс : Встроенный Win32-интерфейс для Win NT/2000
Выходной формат : Внутренние WAV-операцииФормат сэмплов : 44.100 Гц; 16 бит; стерео
TOC извлечённого CD
Трек | Старт | Длительность | Начальный сектор | Конечный сектор --------------------------------------------------------------------- 1 | 0:00.00 | 5:10.57 | 0 | 23306 2 | 5:10.57 | 3:31.57 | 23307 | 39188 3 | 8:42.39 | 3:23.22 | 39189 | 54435 4 | 12:05.61 | 5:38.61 | 54436 | 79846 5 | 17:44.47 | 3:23.22 | 79847 | 95093 6 | 21:07.69 | 2:45.14 | 95094 | 107482 7 | 23:53.08 | 3:29.10 | 107483 | 123167 8 | 27:22.18 | 3:04.33 | 123168 | 137000
Характеристики диапазона извлечения и сообщения об ошибках
Выбранный диапазон
Имя файла C:\Users\Meijin\Desktop\Новая папка (4)\Various - Bonkers - John Peel Session.wav
Пиковый уровень 98.8 % Качество диапазона 99.9 % CRC теста A2BABB45 CRC копии A2BABB45 Копирование... OK
Ошибок не произошло
AccurateRip: сводка
Трек 1 нет в базе данныхТрек 2 нет в базе данныхТрек 3 нет в базе данныхТрек 4 нет в базе данныхТрек 5 нет в базе данныхТрек 6 нет в базе данныхТрек 7 нет в базе данныхТрек 8 нет в базе данных
Ни одного трека нет в базе AccurateRip
Конец отчёта

VA - Bonkers - 1996, [2xCD], (React Music - [REACT CD 83]) /2:16:35/

Треклист:
CD1: Mixxed By HIXXY On 3 Dexx ..... (1:05:08)
01. DJ Hixxy & MC Sharkey – Toytown (4:54)
02. DJ Dougal & Eruption – Party Time Remix (4:10)
03. DJ Hixxy & Ikon – The Wizard Of Oz (2:15)
04. Hixxy – Thumper (4:15)
05. Hopscotch & DJ Dougal – Steam Train (4:27)
06. Hixxy & Bananaman – Together Forever (3:49)
07. Dr Who – Love Of My Life (3:39)
08. A Sense Of Summer – On Top (Hixxy Remix) (2:26)
09. Highlander – I'm Sorry (Original Mix) (2:17)
10. Bass-D & King Matthew Feat. DJ XD – Like A Dream (1:31)
11. Seduction & Eruption – Bust The New Jam (Remix) (3:05)
12. DJ Seduction – Step To The Side (2:46)
13. DJ Vinylgroover & DJ Quatro – Calypso Summer (3:38)
14. DJ Brisk – Airhead (SMD Remix) (3:41)
15. Eruption – Let The Music (Original Mix) (4:34)
16. Force & Styles – Funfair (Exclusive Remix) (4:26)
17. DJ Hixxy – A - Ha Ha Ha (3:16)
18. Scott Brown vs. DJ Rab S – Now Is The Time (Hixxy & Trixxy Remix) (3:48)

CD2: Mixed By SHARKEY (1:11:27)

01. Marc Smith & Sharkey – Truth (5:16)
02. Force & Styles – All Systems Go (3:18)
03. Terrible Twins – Burn This Joint (Tekno Dred & Helix Mix) (3:52)
04. Seb – Rainbow Islands (Sharkey Mix) (4:27)
05. Billy Bunter, D-Zyne, Supreme – Outside World (3:31)
06. Vampire – Teknostorm (Sharkey Remix) (3:10)
07. DJ Ham – Is There Anybody There (4:24)
08. Druid & Bananaman – Tweedledum (5:07)
09. Sy & Sharkey – Feel The Heat (3:00)
10. Druid & Sharkey – Bonkers Anthem (3:31)
11. A Sense Of Summer – Techno Round The World (Remix) (4:23)
12. Druid & Sharkey – Pumpin' (4:10)
13. Druid & Sharkey – Rocket To The Moon (3:53)
14. Druid & Sharkey – Frantik (5:28)
15. MC Sharkey – Revolution (Slipmatt Remix) (5:16)
16. Brisk – On & On (4:24)
17. Force & Styles – Wonderland (4:11)

-

Лог создания рипа CD1

Exact Audio Copy V0.99 prebeta 4 from 23. January 2008
Отчёт EAC об извлечении, выполненном 1. марта 2013, 21:27
Various / Bonkers (CD1) - Mixed by Hixxy
Дисковод: Optiarc DVD RW AD-7261S Adapter: 1 ID: 1
Режим чтения : ДостоверностьИспользование точного потока : ДаОтключение кэша аудио : ДаИспользование указателей C2 : Нет
Коррекция смещения при чтении : 48Способность читать области Lead-in и Lead-out : НетЗаполнение пропущенных сэмплов тишиной : ДаУдаление блоков с тишиной в начале и конце : НетПри вычислениях CRC использовались нулевые сэмплы : ДаИнтерфейс : Встроенный Win32-интерфейс для Win NT/2000
Выходной формат : Внутренние WAV-операцииФормат сэмплов : 44.100 Гц; 16 бит; стерео
TOC извлечённого CD
Трек | Старт | Длительность | Начальный сектор | Конечный сектор --------------------------------------------------------------------- 1 | 0:00.00 | 4:54.37 | 0 | 22086 2 | 4:54.37 | 4:10.55 | 22087 | 40891 3 | 9:05.17 | 2:15.58 | 40892 | 51074 4 | 11:21.00 | 4:15.65 | 51075 | 70264 5 | 15:36.65 | 4:27.02 | 70265 | 90291 6 | 20:03.67 | 3:49.50 | 90292 | 107516 7 | 23:53.42 | 3:39.38 | 107517 | 123979 8 | 27:33.05 | 2:26.02 | 123980 | 134931 9 | 29:59.07 | 2:17.63 | 134932 | 145269 10 | 32:16.70 | 3:34.60 | 145270 | 161379 11 | 35:51.55 | 3:05.17 | 161380 | 175271 12 | 38:56.72 | 2:46.03 | 175272 | 187724 13 | 41:43.00 | 3:38.35 | 187725 | 204109 14 | 45:21.35 | 3:41.30 | 204110 | 220714 15 | 49:02.65 | 4:34.12 | 220715 | 241276 16 | 53:37.02 | 4:26.48 | 241277 | 261274 17 | 58:03.50 | 3:16.00 | 261275 | 275974 18 | 61:19.50 | 3:48.20 | 275975 | 293094
Характеристики диапазона извлечения и сообщения об ошибках
Выбранный диапазон
Имя файла C:\Users\Meijin\Desktop\Новая папка (4)\Various - Bonkers (CD1) - Mixed by Hixxy.wav
Пиковый уровень 100.0 % Качество диапазона 100.0 % CRC теста 56513285 CRC копии 56513285 Копирование... OK
Ошибок не произошло
AccurateRip: сводка
Трек 1 нет в базе данныхТрек 2 нет в базе данныхТрек 3 нет в базе данныхТрек 4 нет в базе данныхТрек 5 нет в базе данныхТрек 6 нет в базе данныхТрек 7 нет в базе данныхТрек 8 нет в базе данныхТрек 9 нет в базе данныхТрек 10 нет в базе данныхТрек 11 нет в базе данныхТрек 12 нет в базе данныхТрек 13 нет в базе данныхТрек 14 нет в базе данныхТрек 15 нет в базе данныхТрек 16 нет в базе данныхТрек 17 нет в базе данныхТрек 18 нет в базе данных
Ни одного трека нет в базе AccurateRip
Конец отчёта

Лог создания рипа CD1

Exact Audio Copy V0.99 prebeta 4 from 23. January 2008
Отчёт EAC об извлечении, выполненном 1. марта 2013, 22:02
Various / Bonkers (CD2) - Mixed by Sharkey
Дисковод: Optiarc DVD RW AD-7261S Adapter: 1 ID: 1
Режим чтения : ДостоверностьИспользование точного потока : ДаОтключение кэша аудио : ДаИспользование указателей C2 : Нет
Коррекция смещения при чтении : 48Способность читать области Lead-in и Lead-out : НетЗаполнение пропущенных сэмплов тишиной : ДаУдаление блоков с тишиной в начале и конце : НетПри вычислениях CRC использовались нулевые сэмплы : ДаИнтерфейс : Встроенный Win32-интерфейс для Win NT/2000
Выходной формат : Внутренние WAV-операцииФормат сэмплов : 44.100 Гц; 16 бит; стерео
TOC извлечённого CD
Трек | Старт | Длительность | Начальный сектор | Конечный сектор --------------------------------------------------------------------- 1 | 0:00.00 | 5:16.02 | 0 | 23701 2 | 5:16.02 | 3:18.28 | 23702 | 38579 3 | 8:34.30 | 3:52.32 | 38580 | 56011 4 | 12:26.62 | 4:27.10 | 56012 | 76046 5 | 16:53.72 | 3:31.70 | 76047 | 91941 6 | 20:25.67 | 3:10.58 | 91942 | 106249 7 | 23:36.50 | 4:24.60 | 106250 | 126109 8 | 28:01.35 | 5:07.22 | 126110 | 149156 9 | 33:08.57 | 3:00.05 | 149157 | 162661 10 | 36:08.62 | 3:31.65 | 162662 | 178551 11 | 39:40.52 | 4:23.05 | 178552 | 198281 12 | 44:03.57 | 4:10.08 | 198282 | 217039 13 | 48:13.65 | 3:53.00 | 217040 | 234514 14 | 52:06.65 | 5:28.10 | 234515 | 259124 15 | 57:35.00 | 5:16.70 | 259125 | 282894 16 | 62:51.70 | 4:24.12 | 282895 | 302706 17 | 67:16.07 | 4:11.25 | 302707 | 321556
Характеристики диапазона извлечения и сообщения об ошибках
Выбранный диапазон
Имя файла C:\Users\Meijin\Desktop\Новая папка (4)\Various - Bonkers (CD2) - Mixed by Sharkey.wav
Пиковый уровень 98.8 % Качество диапазона 100.0 % CRC теста BF194777 CRC копии BF194777 Копирование... OK
Ошибок не произошло
AccurateRip: сводка
Трек 1 нет в базе данныхТрек 2 нет в базе данныхТрек 3 нет в базе данныхТрек 4 нет в базе данныхТрек 5 нет в базе данныхТрек 6 нет в базе данныхТрек 7 нет в базе данныхТрек 8 нет в базе данныхТрек 9 нет в базе данныхТрек 10 нет в базе данныхТрек 11 нет в базе данныхТрек 12 нет в базе данныхТрек 13 нет в базе данныхТрек 14 нет в базе данныхТрек 15 нет в базе данныхТрек 16 нет в базе данныхТрек 17 нет в базе данных
Ни одного трека нет в базе AccurateRip
Конец отчёта

VA - Bonkers 2 - Now We're Totally Bonkers - 2005, [2xCD], (Resist Music - [RESISTCDL15]) /2:30:35/

Треклист:
Cd1: Hixxy Mix (1:14:57)
01. Evolve - The Living Dream
02. Antisocial - My Way
03. DJ Demo - I've Got A Feeling
04. A Sense Of Summer - On Top (Hixxy '97 Remix)
05. Antisocial - Now You've Got
06. Antisocial - Forever Young
07. Antisocial - Whistle
08. Hixxy & Sunset - People's Party
09. DJ Unknown Project, The - Critical Heights (DJ Hixxy Remix)
10. DJ Vinylgroover - Wham Bam
11. DJ Fade & Melody - Is This Love?
12. Fade & Bananaman - A Dreams Surprise
13. DJ Dougal & Mickey Skedale - Don't Go Breaking My Heart
14. Antisocial - Antisocial
15. DJ Demo - You're Mine (Slipmatt Remix)
16. Evolve - Sugar & Spice
17. Blitz, Blaze & Revolution - Big Up The Bass
18. Antisocial - 24-7
19. Antisocial - Scream
20. Force & Styles - Paradise & Dreams

CD2: Sharkey Mix (1:15:38)

01. Ramos, Supreme & U.F.O. - Ravestation (X-Clusive RSR Remix)
02. Ramos, Supreme & U.F.O. - Tekniq
03. DJ Energy & Druid - Future Dimensions
04. Bang The Future - Body Slam
05. GSI - Twister
06. Technotrance & DJ Darryl - Whores In The House
07. DJ Quatro - Rock 'n' Roll
08. Druid & Trixxy - E-Motion
09. Rapido - Inside Beat
10. Marc Smith - Boom 'n' Pow (Exclusive Marc Smith Remix)
11. DJ Fury - Droppin' Bombs (Exclusive Mix)
12. Sharkey & Trixxy - Genesis
13. Helix - U R Everything
14. Sharkey & Trixxy - Therapy
15. Sharkey - Revolution Pt. 1
16. Trixxy - See The Stars
17. DJ Eclipse - Ultraworld 5

-

Лог создания рипа CD1

Exact Audio Copy V0.99 prebeta 4 from 23. January 2008
Отчёт EAC об извлечении, выполненном 23. февраля 2013, 8:56
Various Artists / Bonkers 2 (CD1) - Hixxy Mix
Дисковод: Optiarc DVD RW AD-7261S Adapter: 1 ID: 1
Режим чтения : ДостоверностьИспользование точного потока : ДаОтключение кэша аудио : ДаИспользование указателей C2 : Нет
Коррекция смещения при чтении : 48Способность читать области Lead-in и Lead-out : НетЗаполнение пропущенных сэмплов тишиной : ДаУдаление блоков с тишиной в начале и конце : НетПри вычислениях CRC использовались нулевые сэмплы : ДаИнтерфейс : Встроенный Win32-интерфейс для Win NT/2000
Выходной формат : Внутренние WAV-операцииФормат сэмплов : 44.100 Гц; 16 бит; стерео
TOC извлечённого CD
Трек | Старт | Длительность | Начальный сектор | Конечный сектор --------------------------------------------------------------------- 1 | 0:00.00 | 4:51.56 | 0 | 21880 2 | 4:51.56 | 4:19.54 | 21881 | 41359 3 | 9:11.35 | 1:37.23 | 41360 | 48657 4 | 10:48.58 | 4:13.65 | 48658 | 67697 5 | 15:02.48 | 5:00.63 | 67698 | 90260 6 | 20:03.36 | 4:49.60 | 90261 | 111995 7 | 24:53.21 | 4:17.31 | 111996 | 131301 8 | 29:10.52 | 4:38.70 | 131302 | 152221 9 | 33:49.47 | 4:28.33 | 152222 | 172354 10 | 38:18.05 | 1:25.72 | 172355 | 178801 11 | 39:44.02 | 2:43.39 | 178802 | 191065 12 | 42:27.41 | 2:30.63 | 191066 | 202378 13 | 44:58.29 | 2:52.24 | 202379 | 215302 14 | 47:50.53 | 3:46.21 | 215303 | 232273 15 | 51:36.74 | 4:07.50 | 232274 | 250848 16 | 55:44.49 | 2:41.47 | 250849 | 262970 17 | 58:26.21 | 2:09.20 | 262971 | 272665 18 | 60:35.41 | 5:43.44 | 272666 | 298434 19 | 66:19.10 | 3:56.36 | 298435 | 316170 20 | 70:15.46 | 4:40.67 | 316171 | 337237
Характеристики диапазона извлечения и сообщения об ошибках
Выбранный диапазон
Имя файла C:\Users\Meijin\Desktop\Новая папка (4)\Various Artists - Bonkers 2 (CD1) - Hixxy Mix.wav
Пиковый уровень 100.0 % Качество диапазона 99.9 % CRC теста EDE3F2AC CRC копии EDE3F2AC Копирование... OK
Ошибок не произошло
AccurateRip: сводка
Трек 1 точность не определена (достоверность 4) [E898FCAC], AccurateRip вернул [EB782B6B]Трек 2 точность не определена (достоверность 4) [E019B744], AccurateRip вернул [5DE52B96]Трек 3 точность не определена (достоверность 4) [2B22932C], AccurateRip вернул [62C9FE66]Трек 4 точность не определена (достоверность 4) [3E85BF50], AccurateRip вернул [B16DFD6B]Трек 5 точность не определена (достоверность 4) [1318A1B1], AccurateRip вернул [4E6AEBA2]Трек 6 точность не определена (достоверность 4) [45C2721A], AccurateRip вернул [F580B355]Трек 7 точность не определена (достоверность 4) [3A995DCC], AccurateRip вернул [0292724F]Трек 8 точность не определена (достоверность 4) [27AB5E4F], AccurateRip вернул [88912E3A]Трек 9 точность не определена (достоверность 4) [DA1CE282], AccurateRip вернул [1F4D83E1]Трек 10 точность не определена (достоверность 4) [AD6AC2CC], AccurateRip вернул [96EA3ADF]Трек 11 точность не определена (достоверность 4) [D530EA37], AccurateRip вернул [508AD471]Трек 12 точность не определена (достоверность 4) [19D28764], AccurateRip вернул [5CC55A56]Трек 13 точность не определена (достоверность 4) [A88EF203], AccurateRip вернул [6E96034C]Трек 14 точность не определена (достоверность 4) [235A1E1A], AccurateRip вернул [CB9673AE]Трек 15 точность не определена (достоверность 4) [9FE06A6F], AccurateRip вернул [69D51206]Трек 16 точность не определена (достоверность 4) [435E2EFE], AccurateRip вернул [DFB4DD25]Трек 17 точность не определена (достоверность 4) [8F15FDE2], AccurateRip вернул [D3F488FD]Трек 18 точность не определена (достоверность 3) [A8B825E1], AccurateRip вернул [58A97D5E]Трек 19 точность не определена (достоверность 4) [ABC1CDDA], AccurateRip вернул [577580FA]Трек 20 точность не определена (достоверность 4) [68A43C9E], AccurateRip вернул [F46A4A57]
Ни один трек не прошёл проверки на точностьВ вашей базе может быть иной вариант штамповки диска
Конец отчёта

Лог создания рипа CD2

Exact Audio Copy V0.99 prebeta 4 from 23. January 2008
Отчёт EAC об извлечении, выполненном 23. февраля 2013, 9:31
Various / Bonkers 2 (CD2) - Sharkey Mix
Дисковод: Optiarc DVD RW AD-7261S Adapter: 1 ID: 1
Режим чтения : ДостоверностьИспользование точного потока : ДаОтключение кэша аудио : ДаИспользование указателей C2 : Нет
Коррекция смещения при чтении : 48Способность читать области Lead-in и Lead-out : НетЗаполнение пропущенных сэмплов тишиной : ДаУдаление блоков с тишиной в начале и конце : НетПри вычислениях CRC использовались нулевые сэмплы : ДаИнтерфейс : Встроенный Win32-интерфейс для Win NT/2000
Выходной формат : Внутренние WAV-операцииФормат сэмплов : 44.100 Гц; 16 бит; стерео
TOC извлечённого CD
Трек | Старт | Длительность | Начальный сектор | Конечный сектор --------------------------------------------------------------------- 1 | 0:00.00 | 5:39.45 | 0 | 25469 2 | 5:39.45 | 3:32.13 | 25470 | 41382 3 | 9:11.58 | 3:53.37 | 41383 | 58894 4 | 13:05.20 | 4:57.28 | 58895 | 81197 5 | 18:02.48 | 5:49.45 | 81198 | 107417 6 | 23:52.18 | 3:07.09 | 107418 | 121451 7 | 26:59.27 | 3:52.62 | 121452 | 138913 8 | 30:52.14 | 4:01.73 | 138914 | 157061 9 | 34:54.12 | 4:32.29 | 157062 | 177490 10 | 39:26.41 | 4:21.63 | 177491 | 197128 11 | 43:48.29 | 3:15.20 | 197129 | 211773 12 | 47:03.49 | 5:59.58 | 211774 | 238756 13 | 53:03.32 | 5:03.03 | 238757 | 261484 14 | 58:06.35 | 5:52.45 | 261485 | 287929 15 | 63:59.05 | 4:27.44 | 287930 | 307998 16 | 68:26.49 | 2:54.72 | 307999 | 321120 17 | 71:21.46 | 4:16.42 | 321121 | 340362
Характеристики диапазона извлечения и сообщения об ошибках
Выбранный диапазон
Имя файла C:\Users\Meijin\Desktop\Новая папка (4)\Various - Bonkers 2 (CD2) - Sharkey Mix.wav
Пиковый уровень 100.0 % Качество диапазона 100.0 % CRC теста F0131A15 CRC копии F0131A15 Копирование... OK
Ошибок не произошло
AccurateRip: сводка
Трек 1 точность не определена (достоверность 4) [CC0CFF89], AccurateRip вернул [BF9ECA51]Трек 2 точность не определена (достоверность 4) [5895B29F], AccurateRip вернул [331164A1]Трек 3 точность не определена (достоверность 4) [79B0C4F2], AccurateRip вернул [2CFAAA5D]Трек 4 точность не определена (достоверность 4) [849FD3B1], AccurateRip вернул [C0AE74F5]Трек 5 точность не определена (достоверность 4) [C70D226C], AccurateRip вернул [5ADEE56B]Трек 6 точность не определена (достоверность 4) [26012106], AccurateRip вернул [A45AC2BD]Трек 7 точность не определена (достоверность 4) [3E0F699F], AccurateRip вернул [E6B0B3BE]Трек 8 точность не определена (достоверность 4) [7B76A1B6], AccurateRip вернул [43E1B71D]Трек 9 точность не определена (достоверность 4) [35079AD7], AccurateRip вернул [C609D298]Трек 10 точность не определена (достоверность 4) [AE236984], AccurateRip вернул [BAC8EBBC]Трек 11 точность не определена (достоверность 4) [549B4F12], AccurateRip вернул [CE5D5DE0]Трек 12 точность не определена (достоверность 4) [3840A1B5], AccurateRip вернул [71FDB987]Трек 13 точность не определена (достоверность 4) [BC4790D0], AccurateRip вернул [F13B1616]Трек 14 точность не определена (достоверность 4) [0D549359], AccurateRip вернул [4F0A872D]Трек 15 точность не определена (достоверность 4) [A91A75EE], AccurateRip вернул [E42BBD29]Трек 16 точность не определена (достоверность 4) [2A057F6B], AccurateRip вернул [0CD08FCF]Трек 17 точность не определена (достоверность 4) [70E6C4A9], AccurateRip вернул [DA1F3B1E]
Ни один трек не прошёл проверки на точностьВ вашей базе может быть иной вариант штамповки диска
Конец отчёта

VA - Bonkers 3 - A Journey Into Madness - 1997, [3xCD], (React Music - [REACTCD115]) /3:42:26/

Треклист:
CD1: Hixxy's Mix 1:07:48
01. Hixxy & Bananaman – Together Forever (Evolve Remix) (5:06)
02. Hixxy & Sharkey – Return To Toytown (4:45)
03. DJ Daydream – Galaxy (5:06)
04. Q-Tex – Power Of Love '97 (The Digital Boy Italian Rave Remix) (2:44)
05. Visa – Fly Away (2:38)
06. DJ Daydream – Make Your Own Kind Of Music (3:52)
07. Bang! – Cloudy Daze (4:03)
08. Spitfire – Feel This Way (4:23)
09. 4 Tune Fairytales – Take Me To The Wonderland (2:24)
10. DJ Fade & Melody – Liquid Night (4:17)
11. Antisocial – Fairytale (4:29)
12. Antisocial – See Me Through (5:19)
13. Antisocial – Legends (4:57)
14. Antisocial – Happy Days (4:00)
15. Hixxy – Starry Night (4:35)
16. Antisocial – Need Your Love (5:02)

CD2: Sharkey's Mix (1:20:00)

01. Sharkey & UFO – The Beginning Of The End (1:53)
02. UFO – Inner Sanctum (4:48)
03. Ramos & UFO – The Ravechief (4:25)
04. Supreme & UFO – Trip To The Other Side (6:34)
05. Brisk & Trixxy – Back To The Top (4:20)
06. DJ Druid & UFO – Temporal Rift (4:19)
07. Sharkey & UFO – Terra Nova (Exclusive Bonkers Mix) (5:31)
08. DJ Quatro & Dizzy D – Future Trance Project 2 (4:47)
09. Brisk & Trixxy – Rock The Beat (4:15)
10. Energy & Loopy – Overdose (4:03)
11. DJ Slam – Influence (Slam & Helix Remix) (3:34)
12. DJ Slam & Helix – Acid Break (3:33)
13. Trixxy – Here To Invade (4:17)
14. Eclipse – Devastator (4:31)
15. Marc Smith – Nothing More (4:14)
16. Go Mental – I Can Feel It (VIP Acid & Bass Mix) (4:47)
17. Sharkey – Sound Assassin (Exclusive Instrumental Mix) (3:41)
18. Marc Smith – The Procrastinator (5:47)
19. Sharkey & UFO – The End Of The Beginning (0:29)

CD3: Dougal's Mix (1:14:37)

01. Dougal & Mickey Skeedale – Gotta Go (Remix) (4:22)
02. E-Logic & DNA – Going All The Way (4:07)
03. Innovate – It's Out There (3:44)
04. Dougal – Tranquility (4:18)
05. Triple J – Follow The Sun (4:30)
06. Euphony – Dancin' In The Rain (3:32)
07. Hopscotch & Dougal – Steamtrain (Remix) (4:52)
08. Dougal & Mickey Skeedale – Re-Create Creation (4:52)
09. Triple J – Have It All (5:07)
10. DJ Ham, DJ Demo & Justin Time – The Big Spill (Demo Remix) (3:47)
11. DJ Breeze – Jump A Little Higher (5:03)
12. Dougal & DNA – Tears In Your Eyes (4:40)
13. DJ Demo – Muzik (Ham Remix) (4:18)
14. Fade & Bananaman – Dream's Surprise (Seduction Remix) (3:58)
15. Innovate – Talkin' Bout Love (3:35)
16. DJ Stompy – Follow Me (5:20)
17. Innovate – Stop Me (4:22)

-

Лог создания рипа CD1

Exact Audio Copy V0.99 prebeta 4 from 23. January 2008
Отчёт EAC об извлечении, выполненном 2. апреля 2013, 19:38
Various / Bonkers 3 - A Journey Into Madness (CD1) - Hixxy's Mix
Дисковод: Optiarc DVD RW AD-7261S Adapter: 1 ID: 1
Режим чтения : ДостоверностьИспользование точного потока : ДаОтключение кэша аудио : ДаИспользование указателей C2 : Нет
Коррекция смещения при чтении : 48Способность читать области Lead-in и Lead-out : НетЗаполнение пропущенных сэмплов тишиной : ДаУдаление блоков с тишиной в начале и конце : НетПри вычислениях CRC использовались нулевые сэмплы : ДаИнтерфейс : Встроенный Win32-интерфейс для Win NT/2000
Выходной формат : Внутренние WAV-операцииФормат сэмплов : 44.100 Гц; 16 бит; стерео
TOC извлечённого CD
Трек | Старт | Длительность | Начальный сектор | Конечный сектор --------------------------------------------------------------------- 1 | 0:00.00 | 5:06.62 | 0 | 23011 2 | 5:06.62 | 4:45.00 | 23012 | 44386 3 | 9:51.62 | 5:06.20 | 44387 | 67356 4 | 14:58.07 | 2:44.08 | 67357 | 79664 5 | 17:42.15 | 2:38.35 | 79665 | 91549 6 | 20:20.50 | 3:52.47 | 91550 | 108996 7 | 24:13.22 | 4:03.40 | 108997 | 127261 8 | 28:16.62 | 4:23.70 | 127262 | 147056 9 | 32:40.57 | 2:24.38 | 147057 | 157894 10 | 35:05.20 | 4:17.65 | 157895 | 177234 11 | 39:23.10 | 4:29.24 | 177235 | 197433 12 | 43:52.34 | 5:19.71 | 197434 | 221429 13 | 49:12.30 | 4:57.72 | 221430 | 243776 14 | 54:10.27 | 4:00.25 | 243777 | 261801 15 | 58:10.52 | 4:35.30 | 261802 | 282456 16 | 62:46.07 | 5:02.13 | 282457 | 305119
Характеристики диапазона извлечения и сообщения об ошибках
Выбранный диапазон
Имя файла C:\Users\Meijin\Desktop\Новая папка (4)\Various - Bonkers 3 - A Journey Into Madness (CD1) - Hixxy's Mix.wav
Пиковый уровень 97.7 % Качество диапазона 100.0 % CRC теста 1D9FE13D CRC копии 1D9FE13D Копирование... OK
Ошибок не произошло
AccurateRip: сводка
Трек 1 точное извлечение (доверие 7) [684C026D]Трек 2 точное извлечение (доверие 7) [3A465B96]Трек 3 точное извлечение (доверие 7) [C4BBB1BE]Трек 4 точное извлечение (доверие 7) [78FAD499]Трек 5 точное извлечение (доверие 7) [E37CEDB7]Трек 6 точное извлечение (доверие 6) [2602B7A5]Трек 7 точное извлечение (доверие 7) [83EE905B]Трек 8 точное извлечение (доверие 6) [90B76171]Трек 9 точное извлечение (доверие 7) [31E0F8EC]Трек 10 точное извлечение (доверие 6) [31233B2D]Трек 11 точное извлечение (доверие 6) [764B59A5]Трек 12 точное извлечение (доверие 6) [1935F2E0]Трек 13 точное извлечение (доверие 6) [7FE0F6AD]Трек 14 точное извлечение (доверие 6) [F5B96952]Трек 15 точное извлечение (доверие 6) [BA0C66DC]Трек 16 точное извлечение (доверие 6) [47285B1F]
Все треки извлечены точно
Конец отчёта

Лог создания рипа CD2

Exact Audio Copy V0.99 prebeta 4 from 23. January 2008
Отчёт EAC об извлечении, выполненном 2. апреля 2013, 20:16
Various / Bonkers 3 - A Journey Into Madness (CD2) - Sharkey's Mix
Дисковод: Optiarc DVD RW AD-7261S Adapter: 1 ID: 1
Режим чтения : ДостоверностьИспользование точного потока : ДаОтключение кэша аудио : ДаИспользование указателей C2 : Нет
Коррекция смещения при чтении : 48Способность читать области Lead-in и Lead-out : НетЗаполнение пропущенных сэмплов тишиной : ДаУдаление блоков с тишиной в начале и конце : НетПри вычислениях CRC использовались нулевые сэмплы : ДаИнтерфейс : Встроенный Win32-интерфейс для Win NT/2000
Выходной формат : Внутренние WAV-операцииФормат сэмплов : 44.100 Гц; 16 бит; стерео
TOC извлечённого CD
Трек | Старт | Длительность | Начальный сектор | Конечный сектор --------------------------------------------------------------------- 1 | 0:00.00 | 1:53.20 | 0 | 8494 2 | 1:53.20 | 4:48.52 | 8495 | 30146 3 | 6:41.72 | 4:25.18 | 30147 | 50039 4 | 11:07.15 | 6:34.70 | 50040 | 79659 5 | 17:42.10 | 4:20.60 | 79660 | 99219 6 | 22:02.70 | 4:19.00 | 99220 | 118644 7 | 26:21.70 | 5:31.42 | 118645 | 143511 8 | 31:53.37 | 4:47.68 | 143512 | 165104 9 | 36:41.30 | 4:15.67 | 165105 | 184296 10 | 40:57.22 | 4:03.68 | 184297 | 202589 11 | 45:01.15 | 3:34.47 | 202590 | 218686 12 | 48:35.62 | 3:33.43 | 218687 | 234704 13 | 52:09.30 | 4:17.62 | 234705 | 254041 14 | 56:27.17 | 4:31.08 | 254042 | 274374 15 | 60:58.25 | 4:14.55 | 274375 | 293479 16 | 65:13.05 | 4:47.55 | 293480 | 315059 17 | 70:00.60 | 3:41.67 | 315060 | 331701 18 | 73:42.52 | 5:47.68 | 331702 | 357794 19 | 79:30.45 | 0:29.47 | 357795 | 360016
Характеристики диапазона извлечения и сообщения об ошибках
Выбранный диапазон
Имя файла C:\Users\Meijin\Desktop\Новая папка (4)\Various - Bonkers 3 - A Journey Into Madness (CD2) - Sharkey's Mix.wav
Пиковый уровень 100.0 % Качество диапазона 100.0 % CRC теста 3429D96E CRC копии 3429D96E Копирование... OK
Ошибок не произошло
AccurateRip: сводка
Трек 1 точное извлечение (доверие 8) [7507560D]Трек 2 точное извлечение (доверие 8) [BD6B5A84]Трек 3 точное извлечение (доверие 8) [D6C13712]Трек 4 точное извлечение (доверие 8) [A9627D3C]Трек 5 точное извлечение (доверие 8) [403B2C82]Трек 6 точное извлечение (доверие 8) [84776B0C]Трек 7 точное извлечение (доверие 8) [778F219A]Трек 8 точное извлечение (доверие 8) [948DEE73]Трек 9 точное извлечение (доверие 8) [DD4FCE29]Трек 10 точное извлечение (доверие 8) [80FCFC67]Трек 11 точное извлечение (доверие 8) [525673A7]Трек 12 точное извлечение (доверие 8) [78926F9C]Трек 13 точное извлечение (доверие 8) [42F9078C]Трек 14 точное извлечение (доверие 7) [461A1ED7]Трек 15 точное извлечение (доверие 7) [8BE60F7B]Трек 16 точное извлечение (доверие 7) [31AB6BC1]Трек 17 точное извлечение (доверие 7) [29B80951]Трек 18 точное извлечение (доверие 6) [4D12A057]Трек 19 точное извлечение (доверие 6) [8C2D3221]
Все треки извлечены точно
Конец отчёта

Лог создания рипа CD3

Exact Audio Copy V0.99 prebeta 4 from 23. January 2008
Отчёт EAC об извлечении, выполненном 2. апреля 2013, 20:52
Various / Bonkers 3 - A Journey Into Madness (CD3) - Dougal's Mix
Дисковод: Optiarc DVD RW AD-7261S Adapter: 1 ID: 1
Режим чтения : ДостоверностьИспользование точного потока : ДаОтключение кэша аудио : ДаИспользование указателей C2 : Нет
Коррекция смещения при чтении : 48Способность читать области Lead-in и Lead-out : НетЗаполнение пропущенных сэмплов тишиной : ДаУдаление блоков с тишиной в начале и конце : НетПри вычислениях CRC использовались нулевые сэмплы : ДаИнтерфейс : Встроенный Win32-интерфейс для Win NT/2000
Выходной формат : Внутренние WAV-операцииФормат сэмплов : 44.100 Гц; 16 бит; стерео
TOC извлечённого CD
Трек | Старт | Длительность | Начальный сектор | Конечный сектор --------------------------------------------------------------------- 1 | 0:00.00 | 4:22.32 | 0 | 19681 2 | 4:22.32 | 4:07.30 | 19682 | 38236 3 | 8:29.62 | 3:44.73 | 38237 | 55109 4 | 12:14.60 | 4:18.47 | 55110 | 74506 5 | 16:33.32 | 4:30.25 | 74507 | 94781 6 | 21:03.57 | 3:32.63 | 94782 | 110744 7 | 24:36.45 | 4:52.35 | 110745 | 132679 8 | 29:29.05 | 4:52.37 | 132680 | 154616 9 | 34:21.42 | 5:07.58 | 154617 | 177699 10 | 39:29.25 | 3:47.47 | 177700 | 194771 11 | 43:16.72 | 5:03.48 | 194772 | 217544 12 | 48:20.45 | 4:40.70 | 217545 | 238614 13 | 53:01.40 | 4:18.20 | 238615 | 257984 14 | 57:19.60 | 3:58.52 | 257985 | 275886 15 | 61:18.37 | 3:35.68 | 275887 | 292079 16 | 64:54.30 | 5:20.20 | 292080 | 316099 17 | 70:14.50 | 4:22.50 | 316100 | 335799
Характеристики диапазона извлечения и сообщения об ошибках
Выбранный диапазон
Имя файла C:\Users\Meijin\Desktop\Новая папка (4)\Various - Bonkers 3 - A Journey Into Madness (CD3) - Dougal's Mix.wav
Пиковый уровень 98.8 % Качество диапазона 100.0 % CRC теста 9C0F3703 CRC копии 9C0F3703 Копирование... OK
Ошибок не произошло
AccurateRip: сводка
Трек 1 точное извлечение (доверие 7) [013672C8]Трек 2 точное извлечение (доверие 7) [51A91891]Трек 3 точное извлечение (доверие 7) [C8737028]Трек 4 точное извлечение (доверие 7) [529E3C3B]Трек 5 точное извлечение (доверие 7) [B40DE6F7]Трек 6 точное извлечение (доверие 7) [312FECC4]Трек 7 точное извлечение (доверие 7) [B9383794]Трек 8 точное извлечение (доверие 7) [A332A897]Трек 9 точное извлечение (доверие 7) [02360148]Трек 10 точное извлечение (доверие 7) [BB0D4C26]Трек 11 точное извлечение (доверие 7) [29DB9DD0]Трек 12 точное извлечение (доверие 7) [E496C585]Трек 13 точное извлечение (доверие 7) [0AB9FD6E]Трек 14 точное извлечение (доверие 7) [1A241B90]Трек 15 точное извлечение (доверие 7) [2D968852]Трек 16 точное извлечение (доверие 7) [CE1FC26D]Трек 17 точное извлечение (доверие 7) [71F0C547]
Все треки извлечены точно
Конец отчёта

VA - Bonkers 4 - World Frenzy - 1998, [3xCD], (React Music - [REACTCD122]) /3:31:51/

Треклист:
CD1: Hixxy's Mix 1:03:32
01. Slashing Fun Kids – Imagination (5:07)
02. Los Bonitos – The Lights (4:10)
03. Sequel Base – The Third Chapter (3:05)
04. O.M.G. – Different Outlook (5:22)
05. Saints, The – Fire (4:56)
06. Sub-Ace & Aura – A Guiding Light (2:12)
07. O.M.G. – 14th Dream (4:58)
08. Bananaman & Blitz – The Quickening (1:51)
09. Q-Tex – Equazion Pt. 9 (4:03)
10. 2 Without Heads – U & Me (Scott Brown Mix) (2:23)
11. Visa – Don't Go Away (4:03)
12. Devil Licious – By My Side (5:30)
13. O.M.G. – The One (4:24)
14. Q-Tex – The Power Of Love (Scott Brown '98 Remix) (3:40)
15. Unique – Distant Skies (3:20)
16. Devil Licious – Better Days (4:20)

CD2: Sharkey's Mix (1:14:48)

01. Johnny Go Mental – Acid Rain (6:48)
02. DJ Fury – De-Sensitize (98 Remix) (4:25)
03. Equinox – The Hustler (5:21)
04. DJ Marc Smith – Encounters (6:44)
05. Brisk & Trixxy – Back To The Top (Remix) (4:39)
06. DJ Energy – Future Dimensions Pt. 2 (4:37)
07. Helix & Tekno Dred – Mindless Pleasure (4:28)
08. DJ Energy – The King Of Rock (4:48)
09. DJ Slam – The Bell (4:37)
10. DJ Eclipse – Light Cycle (3:54)
11. Sharkey & Marc Smith – Death By Stereo (5:34)
12. DJ Marc Smith – Gotta Hold On (5:33)
13. DJ Marc Smith – On Two Turntables (4:22)
14. Sharkey – Hard Life (5:02)
15. Sharkey – Product Of Society (3:50)

CD3: Dougal's Mix (1:13:31)

01. Innovate – Innovate Anthem (4:35)
02. Dougal & Skeedale – Don't You Realise (3:36)
03. Datcha & DNA – Dubstar (3:28)
04. Brisk & Trixxy – Eye Opener (4:09)
05. Dougal – Life Is Like A Dance (Dougal & Mickey Skeedale Remix) (4:41)
06. S-Scape – Express Yourself (3:56)
07. Bang! – Shooting Star (Ham Mix) (4:07)
08. Seduction – Leaving The World Behind (4:30)
09. Unique – Feelin' Fine (5:14)
10. Dougal & Skeedale – Words Of Wisdom (5:13)
11. Bang! – Sailaway (3:39)
12. Breeze – Let's Fly (4:24)
13. Sub-Ace & Aura – My Dreams (5:24)
14. Dougal & Skeedale – Zurich (DJ Storm Remix) (4:29)
15. Dyanoiss – The Underground (3:44)
16. Project – Sweet Thing (2:51)
17. Innovate – The Universe (5:22)

-

Лог создания рипа CD1

Exact Audio Copy V0.99 prebeta 4 from 23. January 2008
Отчёт EAC об извлечении, выполненном 17. марта 2013, 20:35
Various / Bonkers 4 - World Frenzy (CD1) - Hixxy's Mix
Дисковод: Optiarc DVD RW AD-7261S Adapter: 1 ID: 1
Режим чтения : ДостоверностьИспользование точного потока : ДаОтключение кэша аудио : ДаИспользование указателей C2 : Нет
Коррекция смещения при чтении : 48Способность читать области Lead-in и Lead-out : НетЗаполнение пропущенных сэмплов тишиной : ДаУдаление блоков с тишиной в начале и конце : НетПри вычислениях CRC использовались нулевые сэмплы : ДаИнтерфейс : Встроенный Win32-интерфейс для Win NT/2000
Выходной формат : Внутренние WAV-операцииФормат сэмплов : 44.100 Гц; 16 бит; стерео
TOC извлечённого CD
Трек | Старт | Длительность | Начальный сектор | Конечный сектор --------------------------------------------------------------------- 1 | 0:00.00 | 5:07.02 | 0 | 23026 2 | 5:07.02 | 4:10.43 | 23027 | 41819 3 | 9:17.45 | 3:05.26 | 41820 | 55720 4 | 12:22.71 | 5:22.56 | 55721 | 79926 5 | 17:45.52 | 4:56.47 | 79927 | 102173 6 | 22:42.24 | 2:12.34 | 102174 | 112107 7 | 24:54.58 | 4:58.59 | 112108 | 134516 8 | 29:53.42 | 1:51.10 | 134517 | 142851 9 | 31:44.52 | 4:03.40 | 142852 | 161116 10 | 35:48.17 | 2:23.35 | 161117 | 171876 11 | 38:11.52 | 4:03.44 | 171877 | 190145 12 | 42:15.21 | 5:30.69 | 190146 | 214964 13 | 47:46.15 | 4:24.50 | 214965 | 234814 14 | 52:10.65 | 3:40.00 | 234815 | 251314 15 | 55:50.65 | 3:20.64 | 251315 | 266378 16 | 59:11.54 | 4:20.47 | 266379 | 285925
Характеристики диапазона извлечения и сообщения об ошибках
Выбранный диапазон
Имя файла C:\Users\Meijin\Desktop\Новая папка (4)\Various - Bonkers 4 - World Frenzy (CD1) - Hixxy's Mix.wav
Пиковый уровень 100.0 % Качество диапазона 100.0 % CRC теста 699F151E CRC копии 699F151E Копирование... OK
Ошибок не произошло
AccurateRip: сводка
Трек 1 точность не определена (достоверность 4) [DA5050C1], AccurateRip вернул [0C3FA7B0]Трек 2 точность не определена (достоверность 4) [A65EA297], AccurateRip вернул [8D4C13C6]Трек 3 точность не определена (достоверность 4) [35EB7FC2], AccurateRip вернул [7F23220B]Трек 4 точность не определена (достоверность 4) [989DD1D4], AccurateRip вернул [A4A154A0]Трек 5 точность не определена (достоверность 4) [F3C3EFCA], AccurateRip вернул [42C0D2EF]Трек 6 точность не определена (достоверность 4) [89F10B56], AccurateRip вернул [C50BDA12]Трек 7 точность не определена (достоверность 4) [799322B4], AccurateRip вернул [15F0CB04]Трек 8 точность не определена (достоверность 4) [95E1347A], AccurateRip вернул [BFD835CF]Трек 9 точность не определена (достоверность 4) [3940B079], AccurateRip вернул [BFB8BDDA]Трек 10 точность не определена (достоверность 4) [2D88A46C], AccurateRip вернул [AC214499]Трек 11 точность не определена (достоверность 3) [9238B456], AccurateRip вернул [B7184B4E]Трек 12 точность не определена (достоверность 3) [9805D87C], AccurateRip вернул [5DF38B43]Трек 13 точность не определена (достоверность 3) [5801FCE7], AccurateRip вернул [807D86E1]Трек 14 точность не определена (достоверность 3) [9509F2B6], AccurateRip вернул [05F8AF76]Трек 15 точность не определена (достоверность 3) [F203AB38], AccurateRip вернул [4216287D]Трек 16 точность не определена (достоверность 3) [B3B4BC3E], AccurateRip вернул [E6FD5DA5]
Ни один трек не прошёл проверки на точностьВ вашей базе может быть иной вариант штамповки диска
Конец отчёта

Лог создания рипа CD2

Exact Audio Copy V0.99 prebeta 4 from 23. January 2008
Отчёт EAC об извлечении, выполненном 17. марта 2013, 22:31
Various / Bonkers 4 - World Frenzy (CD2) - Sharkey's Mix
Дисковод: Optiarc DVD RW AD-7261S Adapter: 1 ID: 1
Режим чтения : ДостоверностьИспользование точного потока : ДаОтключение кэша аудио : ДаИспользование указателей C2 : Нет
Коррекция смещения при чтении : 48Способность читать области Lead-in и Lead-out : НетЗаполнение пропущенных сэмплов тишиной : ДаУдаление блоков с тишиной в начале и конце : НетПри вычислениях CRC использовались нулевые сэмплы : ДаИнтерфейс : Встроенный Win32-интерфейс для Win NT/2000
Выходной формат : Внутренние WAV-операцииФормат сэмплов : 44.100 Гц; 16 бит; стерео
TOC извлечённого CD
Трек | Старт | Длительность | Начальный сектор | Конечный сектор --------------------------------------------------------------------- 1 | 0:00.37 | 6:48.03 | 37 | 30639 2 | 6:48.40 | 4:25.42 | 30640 | 50556 3 | 11:14.07 | 5:21.38 | 50557 | 74669 4 | 16:35.45 | 6:44.34 | 74670 | 105003 5 | 23:20.04 | 4:39.35 | 105004 | 125963 6 | 27:59.39 | 4:37.71 | 125964 | 146809 7 | 32:37.35 | 4:28.06 | 146810 | 166915 8 | 37:05.41 | 4:48.24 | 166916 | 188539 9 | 41:53.65 | 4:37.08 | 188540 | 209322 10 | 46:30.73 | 3:54.36 | 209323 | 226908 11 | 50:25.34 | 5:34.28 | 226909 | 251986 12 | 55:59.62 | 5:33.22 | 251987 | 276983 13 | 61:33.09 | 4:22.07 | 276984 | 296640 14 | 65:55.16 | 5:02.49 | 296641 | 319339 15 | 70:57.65 | 3:50.06 | 319340 | 336595
Характеристики диапазона извлечения и сообщения об ошибках
Выбранный диапазон
Имя файла C:\Users\Meijin\Desktop\Новая папка (4)\Various - Bonkers 4 - World Frenzy (CD2) - Sharkey's Mix.wav
Пиковый уровень 96.6 % Качество диапазона 100.0 % CRC теста 3BFD6125 CRC копии 3BFD6125 Копирование... OK
Ошибок не произошло
AccurateRip: сводка
Трек 1 точность не определена (достоверность 4) [069F6233], AccurateRip вернул [0CCC5BE0]Трек 2 точность не определена (достоверность 5) [F07A817C], AccurateRip вернул [954A5B55]Трек 3 точность не определена (достоверность 5) [1A3C4D24], AccurateRip вернул [0721BEBD]Трек 4 точность не определена (достоверность 4) [6880BF6C], AccurateRip вернул [88EBF392]Трек 5 точность не определена (достоверность 5) [6D85D31E], AccurateRip вернул [A9A2CB77]Трек 6 точность не определена (достоверность 5) [03637D95], AccurateRip вернул [3AE75F64]Трек 7 точность не определена (достоверность 4) [9BBC3BCB], AccurateRip вернул [59EF051F]Трек 8 точность не определена (достоверность 5) [AF7B9BF7], AccurateRip вернул [6FDDD1A7]Трек 9 точность не определена (достоверность 5) [C49842F1], AccurateRip вернул [440E095F]Трек 10 точность не определена (достоверность 5) [176A713C], AccurateRip вернул [58F676AD]Трек 11 точность не определена (достоверность 4) [D4BA759B], AccurateRip вернул [7BE6D46A]Трек 12 точность не определена (достоверность 4) [E1C08B80], AccurateRip вернул [7BFDB091]Трек 13 точность не определена (достоверность 4) [6454BF05], AccurateRip вернул [23AC6AC0]Трек 14 точность не определена (достоверность 4) [9FCD5368], AccurateRip вернул [5F9C9297]Трек 15 точность не определена (достоверность 4) [715D04E6], AccurateRip вернул [DEC52DF4]
Ни один трек не прошёл проверки на точностьВ вашей базе может быть иной вариант штамповки диска
Конец отчёта

Лог создания рипа CD3

Exact Audio Copy V0.99 prebeta 4 from 23. January 2008
Отчёт EAC об извлечении, выполненном 17. марта 2013, 21:56
Various / Bonkers 4 - World Frenzy (CD3) - Dougal's Mix
Дисковод: Optiarc DVD RW AD-7261S Adapter: 1 ID: 1
Режим чтения : ДостоверностьИспользование точного потока : ДаОтключение кэша аудио : ДаИспользование указателей C2 : Нет
Коррекция смещения при чтении : 48Способность читать области Lead-in и Lead-out : НетЗаполнение пропущенных сэмплов тишиной : ДаУдаление блоков с тишиной в начале и конце : НетПри вычислениях CRC использовались нулевые сэмплы : ДаИнтерфейс : Встроенный Win32-интерфейс для Win NT/2000
Выходной формат : Внутренние WAV-операцииФормат сэмплов : 44.100 Гц; 16 бит; стерео
TOC извлечённого CD
Трек | Старт | Длительность | Начальный сектор | Конечный сектор --------------------------------------------------------------------- 1 | 0:00.32 | 4:35.35 | 32 | 20691 2 | 4:35.67 | 3:36.65 | 20692 | 36956 3 | 8:12.57 | 3:28.10 | 36957 | 52566 4 | 11:40.67 | 4:09.08 | 52567 | 71249 5 | 15:50.00 | 4:41.52 | 71250 | 92376 6 | 20:31.52 | 3:56.50 | 92377 | 110126 7 | 24:28.27 | 4:07.43 | 110127 | 128694 8 | 28:35.70 | 4:30.62 | 128695 | 149006 9 | 33:06.57 | 5:14.13 | 149007 | 172569 10 | 38:20.70 | 5:13.70 | 172570 | 196114 11 | 43:34.65 | 3:39.52 | 196115 | 212591 12 | 47:14.42 | 4:24.18 | 212592 | 232409 13 | 51:38.60 | 5:24.17 | 232410 | 256726 14 | 57:03.02 | 4:29.00 | 256727 | 276901 15 | 61:32.02 | 3:44.48 | 276902 | 293749 16 | 65:16.50 | 2:51.40 | 293750 | 306614 17 | 68:08.15 | 5:22.30 | 306615 | 330794
Характеристики диапазона извлечения и сообщения об ошибках
Выбранный диапазон
Имя файла C:\Users\Meijin\Desktop\Новая папка (4)\Various - Bonkers 4 - World Frenzy (CD3) - Dougal's Mix.wav
Пиковый уровень 100.0 % Качество диапазона 100.0 % CRC теста 4046DEF9 CRC копии 4046DEF9 Копирование... OK
Ошибок не произошло
AccurateRip: сводка
Трек 1 точность не определена (достоверность 5) [A6016BFE], AccurateRip вернул [9390DF82]Трек 2 точность не определена (достоверность 5) [A17D9B66], AccurateRip вернул [B0220484]Трек 3 точность не определена (достоверность 5) [DC6588FE], AccurateRip вернул [512544E6]Трек 4 точность не определена (достоверность 5) [61B62E14], AccurateRip вернул [AB4E7CB3]Трек 5 точность не определена (достоверность 5) [157B89BB], AccurateRip вернул [74DB547F]Трек 6 точность не определена (достоверность 5) [9667E68F], AccurateRip вернул [E8B8F047]Трек 7 точность не определена (достоверность 5) [71211729], AccurateRip вернул [37D9D6F2]Трек 8 точность не определена (достоверность 5) [D27F89AE], AccurateRip вернул [A46E47DE]Трек 9 точность не определена (достоверность 5) [08033BB9], AccurateRip вернул [B7871734]Трек 10 точность не определена (достоверность 5) [E134A37B], AccurateRip вернул [CB6D0EC9]Трек 11 точность не определена (достоверность 5) [E01ADF53], AccurateRip вернул [AA9822AB]Трек 12 точность не определена (достоверность 5) [5180CF38], AccurateRip вернул [D9B752CE]Трек 13 точность не определена (достоверность 5) [67600DB8], AccurateRip вернул [D680A8FD]Трек 14 точность не определена (достоверность 5) [11E263ED], AccurateRip вернул [161AC06A]Трек 15 точность не определена (достоверность 5) [0B761714], AccurateRip вернул [2A09FB79]Трек 16 точность не определена (достоверность 5) [C91D0F87], AccurateRip вернул [EFD79D52]Трек 17 точность не определена (достоверность 5) [C1117CD4], AccurateRip вернул [B5CD3F58]
Ни один трек не прошёл проверки на точностьВ вашей базе может быть иной вариант штамповки диска
Конец отчёта

VA - Bonkers 5 - Anarchy In The Universe - 1998, [3xCD], (React Music - [REACT CD 141]) /3:41:57/

Треклист:
CD1: Hixxy`s Mix (1:16:29)
01. Hixxy & UFO – Eternity Has Passed (4:43)
02. Elevate – Virtual Dreams (Euro Mix) (4:08)
03. O.M.G. – Definition Of Hardcore (5:30)
04. Quest – Reach For Love (6:21)
05. Hixxy & UFO – Back In Business (4:00)
06. Hixxy & Sunset Regime – New Day Dawning (5:05)
07. Vinylgroover & Ed C– Bright Eyes (Select Remix) (4:21)
08. Hixxy & Sunset Regime – Legends (5:37)
09. Elevate – Together Again (4:10)
10. Sy & Unknown – Listen To The Ace (Hixxy Remix) (4:21)
11. Hixxy & Sunset Regime – Desire (4:10)
12. Sy & Unknown – Scratchin' (Remix) (4:54)
13. Triple J – Follow The Sun (Hixxy & Sunset Regime Remix) (6:00)
14. Scott Brown – Hardcore Vibes (4:10)
15. Scott Brown – Rockin' Strong (4:43)
16. Scott Brown – Liberation (4:08)

CD2: Sharkey`s Mix (1:10:15)

01. Eclipse vs. Force Mass Motion – Point Zero (5:28)
02. DJ Fury – Lemonade Raygun (Remix) (3:40)
03. DJ Energy – Warped Reality (4:02)
04. Sharkey & Eclipse – Mind Launch (3:12)
05. Surgery – Cybersurfin (5:17)
06. Marc Smith – Rok The House (3:52)
07. Helix – Cluster (3:50)
08. Sharkey – The Awakening (6:41)
09. Sharkey – Distant Dreams (4:31)
10. Tekno Dred & Ad Man – A Voice Spoke To Me (Helix Remix) (4:09)
11. Marc Smith & Sharkey – It's All Just Hardcore (4:52)
12. DJ Energy & Loopy – Overdose (Sharkey 98 Remix) (3:29)
13. Terminal Force – Don't Move (4:52)
14. Helix – Now Control (5:36)
15. Dark Myth – Trippy (3:08)
16. Sharkey & Eclipse – The Warning (3:29)

CD3: Dougals Mix (1:15:13)

01. Triple J – Wonderful World (4:48)
02. Innovate – Just Believe (4:34)
03. Dougal & Mickey Skeedale – Back To The Future (5:16)
04. Force & Styles – Fireworks (Storm Remix) (4:21)
05. Innovate – Invincible (6:03)
06. Dougal – Sky High (Storm Remix) (4:09)
07. Dougal & Mickey Skeedale – Emerald (Remix) (4:54)
08. TKM – Time Out (4:48)
09. Dougal & Mickey Skeedale – Peace Of Mind (5:05)
10. Quest – Images Of You (3:56)
11. Faber – A Better Day (3:56)
12. Breeze & DNA – High In The Sun (4:55)
13. Dougal & Eruption – Party Time (Exclusive Remix) (4:52)
14. Bang! – Break Of Dawn (3:37)
15. Bang! – Shooting Star (Unique Remix) (3:45)
16. Unique – Higher Ground (6:06)

-

Лог создания рипа CD1

Exact Audio Copy V0.99 prebeta 4 from 23. January 2008
Отчёт EAC об извлечении, выполненном 23. февраля 2013, 12:15
Various Artists / Bonkers 5 (CD1) - Hixxy's Mix)
Дисковод: Optiarc DVD RW AD-7261S Adapter: 1 ID: 1
Режим чтения : ДостоверностьИспользование точного потока : ДаОтключение кэша аудио : ДаИспользование указателей C2 : Нет
Коррекция смещения при чтении : 48Способность читать области Lead-in и Lead-out : НетЗаполнение пропущенных сэмплов тишиной : ДаУдаление блоков с тишиной в начале и конце : НетПри вычислениях CRC использовались нулевые сэмплы : ДаИнтерфейс : Встроенный Win32-интерфейс для Win NT/2000
Выходной формат : Внутренние WAV-операцииФормат сэмплов : 44.100 Гц; 16 бит; стерео
TOC извлечённого CD
Трек | Старт | Длительность | Начальный сектор | Конечный сектор --------------------------------------------------------------------- 1 | 0:00.40 | 4:43.48 | 40 | 21312 2 | 4:44.13 | 4:08.16 | 21313 | 39928 3 | 8:52.29 | 5:30.00 | 39929 | 64678 4 | 14:22.29 | 6:21.66 | 64679 | 93319 5 | 20:44.20 | 4:00.00 | 93320 | 111319 6 | 24:44.20 | 5:05.10 | 111320 | 134204 7 | 29:49.30 | 4:21.64 | 134205 | 153843 8 | 34:11.19 | 5:37.22 | 153844 | 179140 9 | 39:48.41 | 4:10.71 | 179141 | 197961 10 | 43:59.37 | 4:21.62 | 197962 | 217598 11 | 48:21.24 | 4:10.55 | 217599 | 236403 12 | 52:32.04 | 4:54.32 | 236404 | 258485 13 | 57:26.36 | 6:00.05 | 258486 | 285490 14 | 63:26.41 | 4:10.60 | 285491 | 304300 15 | 67:37.26 | 4:43.15 | 304301 | 325540 16 | 72:20.41 | 4:08.06 | 325541 | 344146
Характеристики диапазона извлечения и сообщения об ошибках
Выбранный диапазон
Имя файла C:\Users\Meijin\Desktop\Новая папка (4)\Various Artists - Bonkers 5 (CD1) - Hixxy's Mix).wav
Пиковый уровень 96.6 % Качество диапазона 100.0 % CRC теста B91AD0EB CRC копии B91AD0EB Копирование... OK
Ошибок не произошло
AccurateRip: сводка
Трек 1 точность не определена (достоверность 4) [846CC072], AccurateRip вернул [9D8F5753]Трек 2 точность не определена (достоверность 4) [AD9DF97D], AccurateRip вернул [3F72EBA5]Трек 3 точность не определена (достоверность 4) [9F13A454], AccurateRip вернул [8D5E3ECF]Трек 4 точность не определена (достоверность 4) [0AE6E84D], AccurateRip вернул [DBF73A43]Трек 5 точность не определена (достоверность 3) [07DE3895], AccurateRip вернул [1AB53B18]Трек 6 точность не определена (достоверность 4) [864076E9], AccurateRip вернул [B7762799]Трек 7 точность не определена (достоверность 4) [7E90CAA0], AccurateRip вернул [85191F5F]Трек 8 точность не определена (достоверность 4) [0812197D], AccurateRip вернул [56B74D69]Трек 9 точность не определена (достоверность 4) [01F0CD42], AccurateRip вернул [DF226C1F]Трек 10 точность не определена (достоверность 4) [CF3FA822], AccurateRip вернул [036E9AB0]Трек 11 точность не определена (достоверность 4) [05793246], AccurateRip вернул [25E5CA76]Трек 12 точность не определена (достоверность 4) [9EF05BB1], AccurateRip вернул [1F1B05AF]Трек 13 точность не определена (достоверность 4) [8BE859A3], AccurateRip вернул [1C9D1306]Трек 14 точность не определена (достоверность 4) [CCE5E529], AccurateRip вернул [8E1A695E]Трек 15 точность не определена (достоверность 4) [8E548F31], AccurateRip вернул [726A3730]Трек 16 точность не определена (достоверность 4) [C6C20CAE], AccurateRip вернул [731F0631]
Ни один трек не прошёл проверки на точностьВ вашей базе может быть иной вариант штамповки диска
Конец отчёта

Лог создания рипа CD2

Exact Audio Copy V0.99 prebeta 4 from 23. January 2008
Отчёт EAC об извлечении, выполненном 23. февраля 2013, 12:48
Various Artists / Bonkers 5 (CD2) - Sharkey's Mix
Дисковод: Optiarc DVD RW AD-7261S Adapter: 1 ID: 1
Режим чтения : ДостоверностьИспользование точного потока : ДаОтключение кэша аудио : ДаИспользование указателей C2 : Нет
Коррекция смещения при чтении : 48Способность читать области Lead-in и Lead-out : НетЗаполнение пропущенных сэмплов тишиной : ДаУдаление блоков с тишиной в начале и конце : НетПри вычислениях CRC использовались нулевые сэмплы : ДаИнтерфейс : Встроенный Win32-интерфейс для Win NT/2000
Выходной формат : Внутренние WAV-операцииФормат сэмплов : 44.100 Гц; 16 бит; стерео
TOC извлечённого CD
Трек | Старт | Длительность | Начальный сектор | Конечный сектор --------------------------------------------------------------------- 1 | 0:00.00 | 5:28.45 | 0 | 24644 2 | 5:28.45 | 3:40.58 | 24645 | 41202 3 | 9:09.28 | 4:02.17 | 41203 | 59369 4 | 13:11.45 | 3:12.32 | 59370 | 73801 5 | 16:24.02 | 5:17.23 | 73802 | 97599 6 | 21:41.25 | 3:52.14 | 97600 | 115013 7 | 25:33.39 | 3:50.38 | 115014 | 132301 8 | 29:24.02 | 6:41.28 | 132302 | 162404 9 | 36:05.30 | 4:31.50 | 162405 | 182779 10 | 40:37.05 | 4:09.72 | 182780 | 201526 11 | 44:47.02 | 4:52.15 | 201527 | 223441 12 | 49:39.17 | 3:29.12 | 223442 | 239128 13 | 53:08.29 | 4:51.74 | 239129 | 261027 14 | 58:00.28 | 5:36.35 | 261028 | 286262 15 | 63:36.63 | 3:08.47 | 286263 | 300409 16 | 66:45.35 | 3:29.18 | 300410 | 316102
Характеристики диапазона извлечения и сообщения об ошибках
Выбранный диапазон
Имя файла C:\Users\Meijin\Desktop\Новая папка (4)\Various Artists - Bonkers 5 (CD2) - Sharkey's Mix.wav
Пиковый уровень 86.3 % Качество диапазона 100.0 % CRC теста C65FEC28 CRC копии C65FEC28 Копирование... OK
Ошибок не произошло
AccurateRip: сводка
Трек 1 точное извлечение (доверие 3) [838002A5]Трек 2 точное извлечение (доверие 3) [5E5C3F0F]Трек 3 точное извлечение (доверие 3) [619B2F3C]Трек 4 точное извлечение (доверие 3) [91279DB8]Трек 5 точное извлечение (доверие 3) [D4AA81FD]Трек 6 точное извлечение (доверие 3) [FF662E21]Трек 7 точное извлечение (доверие 3) [527FA642]Трек 8 точное извлечение (доверие 3) [07902E38]Трек 9 точное извлечение (доверие 3) [4979C434]Трек 10 точное извлечение (доверие 3) [FBEFCE8E]Трек 11 точное извлечение (доверие 3) [557EA7BE]Трек 12 точное извлечение (доверие 3) [9294A1F3]Трек 13 точное извлечение (доверие 3) [30DF63CE]Трек 14 точное извлечение (доверие 3) [096CB2EB]Трек 15 точное извлечение (доверие 3) [2FD6D935]Трек 16 точное извлечение (доверие 3) [A03550F4]
Все треки извлечены точно
Конец отчёта

Лог создания рипа CD3

Exact Audio Copy V0.99 prebeta 4 from 23. January 2008
Отчёт EAC об извлечении, выполненном 23. февраля 2013, 13:23
Various Artists / Bonkers 5 (Cd3) - Dougal's Mix
Дисковод: Optiarc DVD RW AD-7261S Adapter: 1 ID: 1
Режим чтения : ДостоверностьИспользование точного потока : ДаОтключение кэша аудио : ДаИспользование указателей C2 : Нет
Коррекция смещения при чтении : 48Способность читать области Lead-in и Lead-out : НетЗаполнение пропущенных сэмплов тишиной : ДаУдаление блоков с тишиной в начале и конце : НетПри вычислениях CRC использовались нулевые сэмплы : ДаИнтерфейс : Встроенный Win32-интерфейс для Win NT/2000
Выходной формат : Внутренние WAV-операцииФормат сэмплов : 44.100 Гц; 16 бит; стерео
TOC извлечённого CD
Трек | Старт | Длительность | Начальный сектор | Конечный сектор --------------------------------------------------------------------- 1 | 0:00.40 | 4:48.21 | 40 | 21660 2 | 4:48.61 | 4:34.53 | 21661 | 42263 3 | 9:23.39 | 5:16.44 | 42264 | 66007 4 | 14:40.08 | 4:21.63 | 66008 | 85645 5 | 19:01.71 | 6:03.17 | 85646 | 112887 6 | 25:05.13 | 4:09.73 | 112888 | 131635 7 | 29:15.11 | 4:54.65 | 131636 | 153750 8 | 34:10.01 | 4:48.14 | 153751 | 175364 9 | 38:58.15 | 5:05.04 | 175365 | 198243 10 | 44:03.19 | 3:56.63 | 198244 | 216006 11 | 48:00.07 | 3:56.25 | 216007 | 233731 12 | 51:56.32 | 4:55.25 | 233732 | 255881 13 | 56:51.57 | 4:52.45 | 255882 | 277826 14 | 61:44.27 | 3:37.57 | 277827 | 294158 15 | 65:22.09 | 3:45.20 | 294159 | 311053 16 | 69:07.29 | 6:06.03 | 311054 | 338506
Характеристики диапазона извлечения и сообщения об ошибках
Выбранный диапазон
Имя файла C:\Users\Meijin\Desktop\Новая папка (4)\Various Artists - Bonkers 5 (Cd3) - Dougal's Mix.wav
Пиковый уровень 96.6 % Качество диапазона 99.9 % CRC теста ABB8D350 CRC копии ABB8D350 Копирование... OK
Ошибок не произошло
AccurateRip: сводка
Трек 1 точность не определена (достоверность 3) [A33309DF], AccurateRip вернул [06333F9D]Трек 2 точность не определена (достоверность 3) [2696248D], AccurateRip вернул [60CAE736]Трек 3 точность не определена (достоверность 3) [3CCDB584], AccurateRip вернул [CADCC934]Трек 4 точность не определена (достоверность 3) [173830E9], AccurateRip вернул [D26AF064]Трек 5 точность не определена (достоверность 3) [EF251C4D], AccurateRip вернул [29F21366]Трек 6 точность не определена (достоверность 3) [F3A8BA46], AccurateRip вернул [259B8871]Трек 7 точность не определена (достоверность 3) [358D8A88], AccurateRip вернул [9A326C2E]Трек 8 точность не определена (достоверность 3) [5749397E], AccurateRip вернул [5C7B1176]Трек 9 точность не определена (достоверность 3) [1150C14E], AccurateRip вернул [72ECA39C]Трек 10 точность не определена (достоверность 3) [57B902DA], AccurateRip вернул [5EAD7130]Трек 11 точность не определена (достоверность 3) [433AB8F2], AccurateRip вернул [B389A81B]Трек 12 точность не определена (достоверность 3) [62F3CA09], AccurateRip вернул [C68FC46F]Трек 13 точность не определена (достоверность 3) [AC8D4732], AccurateRip вернул [B8AF61BB]Трек 14 точность не определена (достоверность 3) [16CEE4C3], AccurateRip вернул [07E53A82]Трек 15 точность не определена (достоверность 3) [30AEBB41], AccurateRip вернул [635811D6]Трек 16 точность не определена (достоверность 3) [28D20DB2], AccurateRip вернул [593FFC46]
Ни один трек не прошёл проверки на точностьВ вашей базе может быть иной вариант штамповки диска
Конец отчёта

VA - Bonkers 6 - Wheel Crazy - 1999, [3xCD], (React Music - [REACT CD 150]) /3:52:12/

Треклист:
CD1: Dougal`s Mix (1:18:55)
01. Innovate Captured
02. TKM Sitar
03. Dougal & Mickey Skeedale Revival
04. Force & The Evolution Perfect Dreams (DB7 Back For 99 Mix)
05. Innovate Higher Ground
06. DJ Seduction Holding On (Vinylgroover Remix)
07. Eumovator Funk Rave Brother
08. Dougal & TKM The Chant
09. Breeze I Feel U
10. Ramos Sunshine (Dougal & Skeedale Mix)
11. Brisk & Trixxy Eye Opener (Remix)
12. Mickey Skeedale & Doctor Who Emotion
13. Stealth See Me Climb (Brisk's Electro Flava Mix)
14. Eumovator Musical Life
15. Bang! Hyperspace (Brisk Mix)
16. Projek, The Rhythm On Time
17. Euphony Space Invader (Scott Brown Remix)
18. Quest Yin Yang

CD2: Sy`s Mix (1:14:38)

01. Sy & Unknown Here Comes The Music
02. Stealth Flower Needs The Rain (Brisk Mix)
03. Elevate Virtual Dreams (99 Remix)
04. Vinyltrixta Come Again
05. Slippery Project Something Like Dis (Slipmatt Mix)
06. Sy & Unknown Distant Love (Sy & Unknown Remix)
07. Sy & Demo Movin On
08. Bang! Give Me A Reason (Ham Mix)
09. Sy & Unknown What Is A DJ? (Remix)
10. Class Of 94 Lift You One Stage Higher
11. Ham , Demo & Justin Time Here I Am (Remix)
12. Sy & Demo Sensation (Remix)
13. DJ Seduction Leaving The World Behind (Ham Mix)
14. Sy & Unknown Head In The Clouds
15. Codeine Natural High (Sy & Unknown Mix)
16. Brisk & Trixxy Euro Love

CD3: Vibes` Mix (1:18:39)

01. James Venus & Atomics Heaven (Exclusive Bonkers Mix)
02. Elevate All I Need Is Love (Exclusive Bonkers Mix)
03. S-Real Sanctuary
04. DJ Kaos Delirious (Exclusive Bonkers Mix)
05. CB Project Screamin Dreams
06. Dougal & Skeedale Look At The Stars
07. Techno-Phobic The Rave Theme
08. DJ Breeze Complete Heaven
09. James Venus Night Driving
10. DJ Slam I'm Back (Exclusive Bonkers Mix)
11. SMD SMD 5 (Exclusive Bonkers Mix)
12. DJ Stompy This Is The Night
13. Frisky Clearly Now (Brisk Remix)
14. DJ Vibes Techno Wonderland (Stompy's Bonkers Mix)
15. E-Logic The Gate (Remix)
16. Raver's Choice Raver's Choice 8 1/2

-

Лог создания рипа CD1

Exact Audio Copy V0.99 prebeta 4 from 23. January 2008
Отчёт EAC об извлечении, выполненном 23. февраля 2013, 10:10
Various / Bonkers 6 (Cd1) - Dougal`s Mix
Дисковод: Optiarc DVD RW AD-7261S Adapter: 1 ID: 1
Режим чтения : ДостоверностьИспользование точного потока : ДаОтключение кэша аудио : ДаИспользование указателей C2 : Нет
Коррекция смещения при чтении : 48Способность читать области Lead-in и Lead-out : НетЗаполнение пропущенных сэмплов тишиной : ДаУдаление блоков с тишиной в начале и конце : НетПри вычислениях CRC использовались нулевые сэмплы : ДаИнтерфейс : Встроенный Win32-интерфейс для Win NT/2000
Выходной формат : Внутренние WAV-операцииФормат сэмплов : 44.100 Гц; 16 бит; стерео
TOC извлечённого CD
Трек | Старт | Длительность | Начальный сектор | Конечный сектор --------------------------------------------------------------------- 1 | 0:00.00 | 5:11.60 | 0 | 23384 2 | 5:11.60 | 5:16.02 | 23385 | 47086 3 | 10:27.62 | 4:08.39 | 47087 | 65725 4 | 14:36.26 | 4:21.08 | 65726 | 85308 5 | 18:57.34 | 5:16.28 | 85309 | 109036 6 | 24:13.62 | 3:45.72 | 109037 | 125983 7 | 27:59.59 | 3:23.25 | 125984 | 141233 8 | 31:23.09 | 5:56.27 | 141234 | 167960 9 | 37:19.36 | 3:35.12 | 167961 | 184097 10 | 40:54.48 | 3:01.06 | 184098 | 197678 11 | 43:55.54 | 4:09.08 | 197679 | 216361 12 | 48:04.62 | 4:42.56 | 216362 | 237567 13 | 52:47.43 | 4:39.51 | 237568 | 258543 14 | 57:27.19 | 4:19.64 | 258544 | 278032 15 | 61:47.08 | 2:42.23 | 278033 | 290205 16 | 64:29.31 | 5:51.19 | 290206 | 316549 17 | 70:20.50 | 4:08.56 | 316550 | 335205 18 | 74:29.31 | 4:25.16 | 335206 | 355096
Характеристики диапазона извлечения и сообщения об ошибках
Выбранный диапазон
Имя файла C:\Users\Meijin\Desktop\Новая папка (4)\Various - Bonkers 6 (Cd1) - Dougal`s Mix.wav
Пиковый уровень 100.0 % Качество диапазона 100.0 % CRC теста A037BC53 CRC копии A037BC53 Копирование... OK
Ошибок не произошло
AccurateRip: сводка
Трек 1 точность не определена (достоверность 6) [B81846F4], AccurateRip вернул [093D2331]Трек 2 точность не определена (достоверность 6) [73F5C395], AccurateRip вернул [95706345]Трек 3 точность не определена (достоверность 6) [18DFE6C2], AccurateRip вернул [E3AEFA62]Трек 4 точность не определена (достоверность 6) [88F45B96], AccurateRip вернул [DA1C89C7]Трек 5 точность не определена (достоверность 6) [3F8FBD40], AccurateRip вернул [0F5AA825]Трек 6 точность не определена (достоверность 6) [3B58BA08], AccurateRip вернул [53A36A92]Трек 7 точность не определена (достоверность 6) [7B34E878], AccurateRip вернул [88C7F1D1]Трек 8 точность не определена (достоверность 6) [7B319294], AccurateRip вернул [ADA476D5]Трек 9 точность не определена (достоверность 6) [4F744CF9], AccurateRip вернул [F05501C6]Трек 10 точность не определена (достоверность 6) [E63164D7], AccurateRip вернул [7693D701]Трек 11 точность не определена (достоверность 6) [8BBCFBB6], AccurateRip вернул [ED1B6968]Трек 12 точность не определена (достоверность 6) [4CA1D7DE], AccurateRip вернул [7B622A62]Трек 13 точность не определена (достоверность 6) [99B230ED], AccurateRip вернул [6594F50B]Трек 14 точность не определена (достоверность 6) [476FF943], AccurateRip вернул [55562FB5]Трек 15 точность не определена (достоверность 6) [316699FD], AccurateRip вернул [4FB5ED32]Трек 16 точность не определена (достоверность 6) [B50AFDDF], AccurateRip вернул [2E2ECC72]Трек 17 точность не определена (достоверность 6) [00CA3AD0], AccurateRip вернул [A5D6B167]Трек 18 точность не определена (достоверность 6) [E65BB3DB], AccurateRip вернул [183C8ABA]
Ни один трек не прошёл проверки на точностьВ вашей базе может быть иной вариант штамповки диска
Конец отчёта

Лог создания рипа CD2

Exact Audio Copy V0.99 prebeta 4 from 23. January 2008
Отчёт EAC об извлечении, выполненном 23. февраля 2013, 10:46
Various / Bonkers 6 - (CD2) - Sy`s Mix
Дисковод: Optiarc DVD RW AD-7261S Adapter: 1 ID: 1
Режим чтения : ДостоверностьИспользование точного потока : ДаОтключение кэша аудио : ДаИспользование указателей C2 : Нет
Коррекция смещения при чтении : 48Способность читать области Lead-in и Lead-out : НетЗаполнение пропущенных сэмплов тишиной : ДаУдаление блоков с тишиной в начале и конце : НетПри вычислениях CRC использовались нулевые сэмплы : ДаИнтерфейс : Встроенный Win32-интерфейс для Win NT/2000
Выходной формат : Внутренние WAV-операцииФормат сэмплов : 44.100 Гц; 16 бит; стерео
TOC извлечённого CD
Трек | Старт | Длительность | Начальный сектор | Конечный сектор --------------------------------------------------------------------- 1 | 0:00.00 | 5:16.55 | 0 | 23754 2 | 5:16.55 | 5:41.05 | 23755 | 49334 3 | 10:57.60 | 4:55.61 | 49335 | 71520 4 | 15:53.46 | 4:00.72 | 71521 | 89592 5 | 19:54.43 | 4:22.34 | 89593 | 109276 6 | 24:17.02 | 4:00.37 | 109277 | 127313 7 | 28:17.39 | 5:13.11 | 127314 | 150799 8 | 33:30.50 | 4:27.30 | 150800 | 170854 9 | 37:58.05 | 5:03.59 | 170855 | 193638 10 | 43:01.64 | 4:43.45 | 193639 | 214908 11 | 47:45.34 | 3:59.64 | 214909 | 232897 12 | 51:45.23 | 5:04.41 | 232898 | 255738 13 | 56:49.64 | 4:22.46 | 255739 | 275434 14 | 61:12.35 | 5:03.09 | 275435 | 298168 15 | 66:15.44 | 3:37.13 | 298169 | 314456 16 | 69:52.57 | 4:45.50 | 314457 | 335881
Характеристики диапазона извлечения и сообщения об ошибках
Выбранный диапазон
Имя файла C:\Users\Meijin\Desktop\Новая папка (4)\Various - Bonkers 6 - (CD2) - Sy`s Mix.wav
Пиковый уровень 98.8 % Качество диапазона 100.0 % CRC теста 61968D20 CRC копии 61968D20 Копирование... OK
Ошибок не произошло
AccurateRip: сводка
Трек 1 точность не определена (достоверность 5) [E0AB1A48], AccurateRip вернул [550E6486]Трек 2 точность не определена (достоверность 5) [BF0C5E2B], AccurateRip вернул [D1D4190B]Трек 3 точность не определена (достоверность 5) [C1626707], AccurateRip вернул [B8C0BF59]Трек 4 точность не определена (достоверность 5) [2421E990], AccurateRip вернул [71A71AEF]Трек 5 точность не определена (достоверность 5) [3E7F40EF], AccurateRip вернул [125F43B3]Трек 6 точность не определена (достоверность 5) [F92ED6DA], AccurateRip вернул [6A368764]Трек 7 точность не определена (достоверность 5) [501931D8], AccurateRip вернул [882EBBF4]Трек 8 точность не определена (достоверность 5) [74963DBE], AccurateRip вернул [C0E953CA]Трек 9 точность не определена (достоверность 5) [D9168783], AccurateRip вернул [D61D47F6]Трек 10 точность не определена (достоверность 5) [BFC38807], AccurateRip вернул [89F45264]Трек 11 точность не определена (достоверность 5) [236191BB], AccurateRip вернул [FAC0722B]Трек 12 точность не определена (достоверность 5) [B29B9E4E], AccurateRip вернул [526754C0]Трек 13 точность не определена (достоверность 5) [4CDA0FE6], AccurateRip вернул [AC4ACCD0]Трек 14 точность не определена (достоверность 5) [1DE7DE3D], AccurateRip вернул [96C72942]Трек 15 точность не определена (достоверность 5) [FAF47DED], AccurateRip вернул [1F106439]Трек 16 точность не определена (достоверность 5) [6387EC5F], AccurateRip вернул [CF0C1F81]
Ни один трек не прошёл проверки на точностьВ вашей базе может быть иной вариант штамповки диска
Конец отчёта

Лог создания рипа CD3

Exact Audio Copy V0.99 prebeta 4 from 23. January 2008
Отчёт EAC об извлечении, выполненном 23. февраля 2013, 11:24
Various / Bonkers 6 - (CD3) - Vibes' Mix
Дисковод: Optiarc DVD RW AD-7261S Adapter: 1 ID: 1
Режим чтения : ДостоверностьИспользование точного потока : ДаОтключение кэша аудио : ДаИспользование указателей C2 : Нет
Коррекция смещения при чтении : 48Способность читать области Lead-in и Lead-out : НетЗаполнение пропущенных сэмплов тишиной : ДаУдаление блоков с тишиной в начале и конце : НетПри вычислениях CRC использовались нулевые сэмплы : ДаИнтерфейс : Встроенный Win32-интерфейс для Win NT/2000
Выходной формат : Внутренние WAV-операцииФормат сэмплов : 44.100 Гц; 16 бит; стерео
TOC извлечённого CD
Трек | Старт | Длительность | Начальный сектор | Конечный сектор --------------------------------------------------------------------- 1 | 0:00.00 | 5:15.62 | 0 | 23686 2 | 5:15.62 | 4:54.37 | 23687 | 45773 3 | 10:10.24 | 5:58.68 | 45774 | 72691 4 | 16:09.17 | 5:46.08 | 72692 | 98649 5 | 21:55.25 | 4:23.55 | 98650 | 118429 6 | 26:19.05 | 4:55.64 | 118430 | 140618 7 | 31:14.69 | 5:08.08 | 140619 | 163726 8 | 36:23.02 | 4:05.32 | 163727 | 182133 9 | 40:28.34 | 5:39.51 | 182134 | 207609 10 | 46:08.10 | 3:43.21 | 207610 | 224355 11 | 49:51.31 | 3:33.63 | 224356 | 240393 12 | 53:25.19 | 4:40.11 | 240394 | 261404 13 | 58:05.30 | 3:56.11 | 261405 | 279115 14 | 62:01.41 | 6:04.20 | 279116 | 306435 15 | 68:05.61 | 5:19.03 | 306436 | 330363 16 | 73:24.64 | 5:13.51 | 330364 | 353889
Характеристики диапазона извлечения и сообщения об ошибках
Выбранный диапазон
Имя файла C:\Users\Meijin\Desktop\Новая папка (4)\Various - Bonkers 6 - (CD3) - Vibes' Mix.wav
Пиковый уровень 98.8 % Качество диапазона 100.0 % CRC теста 705D77D7 CRC копии 705D77D7 Копирование... OK
Ошибок не произошло
AccurateRip: сводка
Трек 1 точность не определена (достоверность 6) [DA9A70FF], AccurateRip вернул [D3E65145]Трек 2 точность не определена (достоверность 6) [E969873D], AccurateRip вернул [8D23C86E]Трек 3 точность не определена (достоверность 6) [FD14C473], AccurateRip вернул [62C41253]Трек 4 точность не определена (достоверность 6) [FA60AA46], AccurateRip вернул [B7522527]Трек 5 точность не определена (достоверность 6) [FE93F2D1], AccurateRip вернул [E8D18025]Трек 6 точность не определена (достоверность 6) [CB55009A], AccurateRip вернул [7FB6D491]Трек 7 точность не определена (достоверность 6) [FF881691], AccurateRip вернул [066FE8D1]Трек 8 точность не определена (достоверность 6) [F9F7F6B5], AccurateRip вернул [A76B1AC6]Трек 9 точность не определена (достоверность 6) [A4FD9684], AccurateRip вернул [2748AAA7]Трек 10 точность не определена (достоверность 6) [0A0602A0], AccurateRip вернул [0668BC4F]Трек 11 точность не определена (достоверность 6) [59303F63], AccurateRip вернул [55385F22]Трек 12 точность не определена (достоверность 6) [3303A570], AccurateRip вернул [A06395CF]Трек 13 точность не определена (достоверность 6) [8F6BFA5C], AccurateRip вернул [724D302D]Трек 14 точность не определена (достоверность 6) [EA23B93B], AccurateRip вернул [432C7932]Трек 15 точность не определена (достоверность 6) [E8486F2B], AccurateRip вернул [FBA5A790]Трек 16 точность не определена (достоверность 6) [EA76B7C9], AccurateRip вернул [EA311D70]
Ни один трек не прошёл проверки на точностьВ вашей базе может быть иной вариант штамповки диска
Конец отчёта
MP3: http://rutracker.org/forum/viewtopic.php?t=4567166

_________________
Показать сообщения:    

Текущее время: Сегодня 20:58

Часовой пояс: GMT



Вы не можете начинать темы
Вы не можете отвечать на сообщения
Вы не можете редактировать свои сообщения
Вы не можете удалять свои сообщения
Вы не можете голосовать в опросах
Вы не можете прикреплять файлы к сообщениям
Вы не можете скачивать файлы