Важное объявление!
У Нас Все раздачи мультитрекерные, при нуле пиров в релизах, можете смело вставать на закачку!
 
Автор Сообщение

HUNTER

Стаж:
4 года 4 месяца
Сообщений:
56842

Репутация: 101

[+] [-]
Вне форума [Профиль] [ЛС]

D U N E... this one is dedicated to all the ravers in the nation ... Жанр: Happy Hardcore / Techno / Trance / Electronic / Modern Classical // Носитель: CD // Страна-производитель диска: EU // Год издания: 1995-2003 // Издатель (лейбл): Urban / Orbit Records / Virgin
Страна исполнителя (группы): Germany // Аудиокодек: FLAC (*.flac) // Тип рипа: image+.cue // Битрейт аудио: lossless // Продолжительность: 13:02:10
Источник (релизер): собственный рип // Наличие сканов в содержимом раздачи: да (PNG 600 dpi)

Biography

DUNE — немецкий музыкальный коллектив, исполняющий композиции в стилях happy hardcore, techno, trance, electro.
История восхождения DUNE к вершинам успеха началась в 1992 году, когда DJ Оливер (Oliver Froning) встретил студийного продюсера Джен (Jens Oettrich) в музыкальном магазине. Трио было дополнено продюсером Плутоном (Plutone) (экс - Raver’s Nature, Marusha), aka Берн Барнофф (Bern Burhoff).
Джен, Берн и Оливер обнаружили, что их пристрастия в музыке очень схожи и решили работать вместе. Композиция «Hardcore Vibes» была первым результатом их сотрудничества. Некоторое время спустя они основали группу DUNE, берущую название у одноименной фантастической книги Фрэнка Герберта (Frank Herbert).
DUNE выпустила свой первый сингл «Hardcore Vibes» в январе 1995. Он имел огромный успех: композиция поднялась на 5-е место в чартах Германии и удерживалась в Top-100 19 недель. Синглы «Are You Ready To Fly» и «Can’t Stop Raving» закрепили успех группы.
В том же 1995 году был выпущен и дебютный альбом, который был назван «Dune».
В 1996 году, группа выпускает второй альбом - «Expedicion». Первый сингл альбома - «Rainbow To The Stars», дебютировал с 12 строчки чарта. В основе второго сингла «Hand in Hand» лежит средневековая германская сказка «Гамельнский крысолов». Третий сингл с альбома - «Million Miles From Home», был выбран в качестве официальной песни празднования 30-ти летия «Star Trek» в Германии.
В этом же году, выходит альбом «Live!», с записью концерта в Раштатте.
В 1997 году, Dune, совместно с лондонским сессионным оркестром (The London Session Orchestra), выпускает альбом «Forever». Альбом включает в себя оркестровые каверы шедевров поп музыки. С синглами вышли три песни с альбома - «Who Wants To Live Forever», «Somebody» и «Nothing Compares 2 U».
После выхода альбома «Forever», Ферена покидает группу, чтобы заняться сольной карьерой.
В 1998 году, к группе DUNE присоединилась новая вокалистка, некая Ванесса (Vanessa Hrster). С ней группа выпускает два сингла «Keep The Secret» и «Electric Heaven». Группа готовится выпустить альбом «5» в августе 1998, но он так и не вышел.
В ноябре этого года, появляется новая вокалистка Dune, Тина (Tina Lacebal) и вместе с ней группа продолжила развитие темы альбома «Forever» и записала альбом «Forever And Ever», опять при участии лондонского сессионного оркестра.
В 1999 году, Ферена снова вернулась в группу и вместе они записали альбом «Reunion», который к сожалению, не вышел, из-за нарушения авторских прав и долгих судебных тяжб по поводу песни «Heaven». Но три трека из альбома были включены в альбом-компиляцию «History».
В 2000 году вышел сборник лучших хитов «History» с тремя новыми песнями, «Hardcore Vibes 2000» и с компьютерной игрой «Keep The Secret».
В 2003 DUNE (точнее, Оливер) выпускают последний, на сегодняшний день, трек - «Rainbow To The Stars 2003».
Сейчас Оливер продолжает выступать, как у себя на родине, так и в других странах под именем DUNE.
Состав
Oliver "DJ Raw" Froning
Jens Oettrich
Bernd Burhoff
Verena von Strenge - vocals (1995-1997, 1999-2003)
Tina Lagao - vocals (1995)
Vanessa Hrster - vocals (1998)
Tina Lacebal - vocals (1998)

Discography

Albums:

1995 - Dune

Жанр: Happy Hardcore / Hardcore / Ambient
Носитель: CD
Страна-производитель диска (релиза): EU
Год издания: 1995
Издатель (лейбл): Urban / Motor Music GmbH
Номер по каталогу: 529 023-2
Страна исполнителя (группы): Germany
Аудиокодек: FLAC (*.flac)
Тип рипа: image+.cue
Битрейт аудио: lossless
Продолжительность: 01:00:17
Источник (релизер): рип собственного диска
Наличие сканов в содержимом раздачи: да
Треклист:
01. In The Beginning ... (0:48)
02. Hardcore Vibes (3:33)
03. Just Another Dream (4:08)
04. Future Is now (4:57)
05. Final Dream (4:24)
06. The Spice (4:34)
07. Are You Ready To Fly (3:32)
08. Can't Stop Raving (4:23)
09. Up! (4:29)
10. Generation Love (4:56)
11. Positiv Energy (4:17)
12. Make Sense (5:10)
13. ... In The End (10:58)
Лог создания рипа
Exact Audio Copy V1.0 beta 3 from 29. August 2011
EAC extraction logfile from 2. May 2015, 12:06
Dune / Dune
Used drive : PIONEER BD-RW BDR-207D Adapter: 1 ID: 0
Read mode : SecureUtilize accurate stream : YesDefeat audio cache : YesMake use of C2 pointers : No
Read offset correction : 667Overread into Lead-In and Lead-Out : NoFill up missing offset samples with silence : YesDelete leading and trailing silent blocks : NoNull samples used in CRC calculations : YesUsed interface : Native Win32 interface for Win NT & 2000
Used output format : User Defined EncoderSelected bitrate : 128 kBit/sQuality : HighAdd ID3 tag : NoCommand line compressor : C:\Program Files (x86)\Exact Audio Copy\Flac\flac.exeAdditional command line options : -V -8 -T "Date=%year%" -T "Genre=%genre%" %source%
TOC of the extracted CD
Track | Start | Length | Start sector | End sector --------------------------------------------------------- 1 | 0:00.32 | 0:48.70 | 32 | 3701 2 | 0:49.27 | 3:33.18 | 3702 | 19694 3 | 4:22.45 | 4:08.62 | 19695 | 38356 4 | 8:31.32 | 4:57.35 | 38357 | 60666 5 | 13:28.67 | 4:24.73 | 60667 | 80539 6 | 17:53.65 | 4:34.40 | 80540 | 101129 7 | 22:28.30 | 3:32.60 | 101130 | 117089 8 | 26:01.15 | 4:23.47 | 117090 | 136861 9 | 30:24.62 | 4:29.08 | 136862 | 157044 10 | 34:53.70 | 4:56.42 | 157045 | 179286 11 | 39:50.37 | 4:17.63 | 179287 | 198624 12 | 44:08.25 | 5:10.30 | 198625 | 221904 13 | 49:18.55 | 10:58.20 | 221905 | 271274
Range status and errors
Selected range
Filename D:\Dune Discography\albums\1995 - Dune (529 023-2)\Dune - Dune (529 023-2) (1995).wav
Peak level 98.8 % Extraction speed 1.8 X Range quality 100.0 % Test CRC 96A9A54C Copy CRC 96A9A54C Copy OK
No errors occurred
AccurateRip summary
Track 1 accurately ripped (confidence 48) [BA23B9C1] (AR v2)Track 2 accurately ripped (confidence 49) [4B710A92] (AR v2)Track 3 accurately ripped (confidence 49) [11F76D4D] (AR v2)Track 4 accurately ripped (confidence 48) [DDD1F3F5] (AR v2)Track 5 accurately ripped (confidence 47) [62A45281] (AR v2)Track 6 accurately ripped (confidence 49) [A8A1B4F1] (AR v2)Track 7 accurately ripped (confidence 49) [9030618B] (AR v2)Track 8 accurately ripped (confidence 49) [D5C2723B] (AR v2)Track 9 accurately ripped (confidence 49) [F810F41B] (AR v2)Track 10 accurately ripped (confidence 49) [5112F410] (AR v2)Track 11 accurately ripped (confidence 49) [6657A359] (AR v2)Track 12 accurately ripped (confidence 48) [22BF2D01] (AR v2)Track 13 accurately ripped (confidence 48) [6AB31986] (AR v2)
All tracks accurately ripped
End of status report
==== Log checksum 56C9F8F51AC90A0F2F6028082FEC4274CB6E28ADD86AAA4460268B05A037D31B ====

1996 - Expedicion

Жанр: Happy Hardcore / Techno / Ambient
Носитель: CD
Страна-производитель диска (релиза): EU
Год издания: 1996
Издатель (лейбл): Orbit Records GmbH / Virgin
Номер по каталогу: 7243 8 41610 2 6
Страна исполнителя (группы): Germany
Аудиокодек: FLAC (*.flac)
Тип рипа: image+.cue
Битрейт аудио: lossless
Продолжительность: 00:57:07
Источник (релизер): рип собственного диска
Наличие сканов в содержимом раздачи: да
Треклист:
01. Rising (0:25)
02. Million Miles From Home (4:23)
03. Expedicion (5:28)
04. Lost In Space (4:45)
05. So Beautiful (6:40)
06. Around The World (4:55)
07. In The Air - Part 1 (5:15)
08. Rainbow To The Stars (4:56)
09. In My Dreams (5:11)
10. Hand In Hand (4:34)
11. In The Air - Part 2 (10:29)
Лог создания рипа
Exact Audio Copy V1.0 beta 3 from 29. August 2011
EAC extraction logfile from 2. May 2015, 12:33
Dune / Expedicion
Used drive : PIONEER BD-RW BDR-207D Adapter: 1 ID: 0
Read mode : SecureUtilize accurate stream : YesDefeat audio cache : YesMake use of C2 pointers : No
Read offset correction : 667Overread into Lead-In and Lead-Out : NoFill up missing offset samples with silence : YesDelete leading and trailing silent blocks : NoNull samples used in CRC calculations : YesUsed interface : Native Win32 interface for Win NT & 2000
Used output format : User Defined EncoderSelected bitrate : 128 kBit/sQuality : HighAdd ID3 tag : NoCommand line compressor : C:\Program Files (x86)\Exact Audio Copy\Flac\flac.exeAdditional command line options : -V -8 -T "Date=%year%" -T "Genre=%genre%" %source%
TOC of the extracted CD
Track | Start | Length | Start sector | End sector --------------------------------------------------------- 1 | 0:00.00 | 0:25.34 | 0 | 1908 2 | 0:25.34 | 4:23.54 | 1909 | 21687 3 | 4:49.13 | 5:28.41 | 21688 | 46328 4 | 10:17.54 | 4:45.54 | 46329 | 67757 5 | 15:03.33 | 6:40.24 | 67758 | 97781 6 | 21:43.57 | 4:55.42 | 97782 | 119948 7 | 26:39.24 | 5:15.70 | 119949 | 143643 8 | 31:55.19 | 4:56.03 | 143644 | 165846 9 | 36:51.22 | 5:11.62 | 165847 | 189233 10 | 42:03.09 | 4:34.67 | 189234 | 209850 11 | 46:38.01 | 10:28.73 | 209851 | 257023
Range status and errors
Selected range
Filename D:\Dune Discography\albums\1996 - Expedicion (7243 8 41610 2 6)\Dune - Expedicion (7243 8 41610 2 6) (1996).wav
Peak level 98.8 % Extraction speed 7.4 X Range quality 100.0 % Test CRC E575E740 Copy CRC E575E740 Copy OK
No errors occurred
AccurateRip summary
Track 1 accurately ripped (confidence 24) [FB95A2DA] (AR v2)Track 2 accurately ripped (confidence 22) [0BA48996] (AR v2)Track 3 accurately ripped (confidence 24) [182E29FE] (AR v2)Track 4 accurately ripped (confidence 24) [6D732CEF] (AR v2)Track 5 accurately ripped (confidence 24) [858E81B0] (AR v2)Track 6 accurately ripped (confidence 24) [731391B5] (AR v2)Track 7 accurately ripped (confidence 24) [564F5FDA] (AR v2)Track 8 accurately ripped (confidence 23) [02087BCE] (AR v2)Track 9 accurately ripped (confidence 24) [12A5C9EB] (AR v2)Track 10 accurately ripped (confidence 24) [15223AD3] (AR v2)Track 11 accurately ripped (confidence 24) [E2BDDB32] (AR v2)
All tracks accurately ripped
End of status report
==== Log checksum 9C90B3090B19FBC48874272D795BBEFFDA30881081432A4F1AC7F66803843A69 ====

1996 - Live!

Жанр: Happy Hardcore / Hard Trance
Носитель: CD
Страна-производитель диска (релиза): EU
Год издания: 1996
Издатель (лейбл): Orbit Records GmbH / Virgin
Номер по каталогу: 7243 8 42182 2 5
Страна исполнителя (группы): Germany
Аудиокодек: FLAC (*.flac)
Тип рипа: image+.cue
Битрейт аудио: lossless
Продолжительность: 00:42:50
Источник (релизер): рип собственного диска
Наличие сканов в содержимом раздачи: да
Треклист:
01. Hallo Rastatt (0:28)
02. Hand In Hand (6:08)
03. Can't Stop Raving (5:51)
04. Around The World (5:16)
05. Rainbow To The Stars (7:25)
06. Rising (0:26)
07. Million Miles From Home (4:22)
08. Hardcore Vibes (5:56)
09. Expedicion (5:47)
10. Verena's Birthday Party (1:07)
Лог создания рипа
Exact Audio Copy V1.0 beta 3 from 29. August 2011
EAC extraction logfile from 2. May 2015, 12:56
Dune / Live!
Used drive : PIONEER BD-RW BDR-207D Adapter: 1 ID: 0
Read mode : SecureUtilize accurate stream : YesDefeat audio cache : YesMake use of C2 pointers : No
Read offset correction : 667Overread into Lead-In and Lead-Out : NoFill up missing offset samples with silence : YesDelete leading and trailing silent blocks : NoNull samples used in CRC calculations : YesUsed interface : Native Win32 interface for Win NT & 2000
Used output format : User Defined EncoderSelected bitrate : 128 kBit/sQuality : HighAdd ID3 tag : NoCommand line compressor : C:\Program Files (x86)\Exact Audio Copy\Flac\flac.exeAdditional command line options : -V -8 -T "Date=%year%" -T "Genre=%genre%" %source%
TOC of the extracted CD
Track | Start | Length | Start sector | End sector --------------------------------------------------------- 1 | 0:00.00 | 0:28.02 | 0 | 2101 2 | 0:28.02 | 6:08.73 | 2102 | 29774 3 | 6:37.00 | 5:51.30 | 29775 | 56129 4 | 12:28.30 | 5:16.45 | 56130 | 79874 5 | 17:45.00 | 7:25.00 | 79875 | 113249 6 | 25:10.00 | 0:26.73 | 113250 | 115272 7 | 25:36.73 | 4:22.68 | 115273 | 134990 8 | 29:59.66 | 5:56.39 | 134991 | 161729 9 | 35:56.30 | 5:47.00 | 161730 | 187754 10 | 41:43.30 | 1:06.49 | 187755 | 192753
Range status and errors
Selected range
Filename D:\Dune Discography\albums\1996 - Live! (7243 8 42182 2 5)\Dune - Live! (7243 8 42182 2 5) (1996).wav
Peak level 98.8 % Extraction speed 6.9 X Range quality 99.9 % Test CRC 65AA1258 Copy CRC 65AA1258 Copy OK
No errors occurred
AccurateRip summary
Track 1 accurately ripped (confidence 11) [4B1BF672] (AR v2)Track 2 accurately ripped (confidence 12) [B415171E] (AR v2)Track 3 accurately ripped (confidence 12) [8EF4FC02] (AR v2)Track 4 accurately ripped (confidence 12) [495805C8] (AR v2)Track 5 accurately ripped (confidence 12) [5335DF81] (AR v2)Track 6 accurately ripped (confidence 12) [3B72ADE3] (AR v2)Track 7 accurately ripped (confidence 12) [1ECCA3B9] (AR v2)Track 8 accurately ripped (confidence 12) [99544318] (AR v2)Track 9 accurately ripped (confidence 12) [1D0B7656] (AR v2)Track 10 accurately ripped (confidence 11) [1D109D12] (AR v2)
All tracks accurately ripped
End of status report
==== Log checksum 885629ED1EAD123CAF6912674A81478DD85EB769F1028072D75CE51E28CA77CE ====

1996 - Forever

Жанр: Modern Classical
Носитель: CD
Страна-производитель диска (релиза): EU
Год издания: 1996
Издатель (лейбл): Orbit Records GmbH / Virgin
Номер по каталогу: 7243 8 42182 2 5
Страна исполнителя (группы): Germany
Аудиокодек: FLAC (*.flac)
Тип рипа: image+.cue
Битрейт аудио: lossless
Продолжительность: 00:58:44
Источник (релизер): рип собственного диска
Наличие сканов в содержимом раздачи: да
Треклист:
01. Who Wants To Live Forever (3:55)
02. 9 PM Abbey Road (2:06)
03. Somebody (3:56)
04. One Moment (2:00)
05. Against All Odds (3:53)
06. The Promise (2:05)
07. Sea Song (3:47)
08. Little Princess (2:38)
09. The Power Of Love (5:21)
10. Works (2:08)
11. Nothing Compares 2 U (4:45)
12. Variations (2:58)
13. Hide And Seek (5:13)
14. Forever (3:55)
15. Winter Kills (4:57)
16. Reprise (5:01)
Лог создания рипа
Exact Audio Copy V1.0 beta 3 from 29. August 2011
EAC extraction logfile from 2. May 2015, 13:18
Dune & The London Session Orchestra / Forever
Used drive : PIONEER BD-RW BDR-207D Adapter: 1 ID: 0
Read mode : SecureUtilize accurate stream : YesDefeat audio cache : YesMake use of C2 pointers : No
Read offset correction : 667Overread into Lead-In and Lead-Out : NoFill up missing offset samples with silence : YesDelete leading and trailing silent blocks : NoNull samples used in CRC calculations : YesUsed interface : Native Win32 interface for Win NT & 2000
Used output format : User Defined EncoderSelected bitrate : 128 kBit/sQuality : HighAdd ID3 tag : NoCommand line compressor : C:\Program Files (x86)\Exact Audio Copy\Flac\flac.exeAdditional command line options : -V -8 -T "Date=%year%" -T "Genre=%genre%" %source%
TOC of the extracted CD
Track | Start | Length | Start sector | End sector --------------------------------------------------------- 1 | 0:00.00 | 3:55.00 | 0 | 17624 2 | 3:55.00 | 2:06.68 | 17625 | 27142 3 | 6:01.68 | 3:56.70 | 27143 | 44912 4 | 9:58.63 | 2:00.63 | 44913 | 53975 5 | 11:59.51 | 3:53.64 | 53976 | 71514 6 | 15:53.40 | 2:05.47 | 71515 | 80936 7 | 17:59.12 | 3:47.07 | 80937 | 97968 8 | 21:46.19 | 2:38.09 | 97969 | 109827 9 | 24:24.28 | 5:21.54 | 109828 | 133956 10 | 29:46.07 | 2:08.10 | 133957 | 143566 11 | 31:54.17 | 4:45.01 | 143567 | 164942 12 | 36:39.18 | 2:58.24 | 164943 | 178316 13 | 39:37.42 | 5:13.17 | 178317 | 201808 14 | 44:50.59 | 3:55.45 | 201809 | 219478 15 | 48:46.29 | 4:57.31 | 219479 | 241784 16 | 53:43.60 | 5:00.38 | 241785 | 264322
Range status and errors
Selected range
Filename D:\Dune Discography\albums\1996 - Forever (7243 8 42794 2 4)\Dune & The London Session Orchestra - Forever (7243 8 42794 2 4) (1996).wav
Peak level 97.0 % Extraction speed 7.5 X Range quality 100.0 % Test CRC E6A3740C Copy CRC E6A3740C Copy OK
No errors occurred
AccurateRip summary
Track 1 accurately ripped (confidence 79) [5F93988E] (AR v2)Track 2 accurately ripped (confidence 79) [D6A723E2] (AR v2)Track 3 accurately ripped (confidence 80) [90AC885F] (AR v2)Track 4 accurately ripped (confidence 80) [D4C9A84D] (AR v2)Track 5 accurately ripped (confidence 80) [0E87E6C0] (AR v2)Track 6 accurately ripped (confidence 79) [BC88153B] (AR v2)Track 7 accurately ripped (confidence 80) [C6F06F06] (AR v2)Track 8 accurately ripped (confidence 80) [BED68BE0] (AR v2)Track 9 accurately ripped (confidence 79) [D1E80A64] (AR v2)Track 10 accurately ripped (confidence 80) [72A50521] (AR v2)Track 11 accurately ripped (confidence 79) [3F5C9A86] (AR v2)Track 12 accurately ripped (confidence 79) [032E6999] (AR v2)Track 13 accurately ripped (confidence 79) [22FB21F8] (AR v2)Track 14 accurately ripped (confidence 78) [2B03712F] (AR v2)Track 15 accurately ripped (confidence 79) [0A2AAA4D] (AR v2)Track 16 accurately ripped (confidence 79) [4B93D76A] (AR v2)
All tracks accurately ripped
End of status report
==== Log checksum A8E9B82C93A192DC0F01154E5FDFD1E340F4CC1EDB6C4728870E2FE1B4852ECC ====

1998 - Forever And Ever

Жанр: Modern Classical
Носитель: CD
Страна-производитель диска (релиза): EU
Год издания: 1998
Издатель (лейбл): Orbit Records GmbH / Virgin
Номер по каталогу: 7243 8 46965 2 8
Страна исполнителя (группы): Germany
Аудиокодек: FLAC (*.flac)
Тип рипа: image+.cue
Битрейт аудио: lossless
Продолжительность: 01:14:11
Источник (релизер): рип собственного диска
Наличие сканов в содержимом раздачи: да
Треклист:
01. One Of Us (3:51)
02. Millennium (1:05)
03. Almaz (4:28)
04. Open Letter (1:10)
05. A Question Of Lust (4:19)
06. Early Voyage (2:15)
07. Memories Fade (5:22)
08. This Waiting Earth (2:59)
09. Hello (3:58)
10. Behind The Mask (3:16)
11. Save A Prayer (5:53)
12. Out Of This World (4:10)
13. Forever Young (3:59)
14. Nightfall (2:49)
15. Here Comes The Flood (24:31)
Лог создания рипа
Exact Audio Copy V1.0 beta 3 from 29. August 2011
EAC extraction logfile from 2. May 2015, 13:43
Dune & The London Session Orchestra / Forever And Ever
Used drive : PIONEER BD-RW BDR-207D Adapter: 1 ID: 0
Read mode : SecureUtilize accurate stream : YesDefeat audio cache : YesMake use of C2 pointers : No
Read offset correction : 667Overread into Lead-In and Lead-Out : NoFill up missing offset samples with silence : YesDelete leading and trailing silent blocks : NoNull samples used in CRC calculations : YesUsed interface : Native Win32 interface for Win NT & 2000
Used output format : User Defined EncoderSelected bitrate : 128 kBit/sQuality : HighAdd ID3 tag : NoCommand line compressor : C:\Program Files (x86)\Exact Audio Copy\Flac\flac.exeAdditional command line options : -V -8 -T "Date=%year%" -T "Genre=%genre%" %source%
TOC of the extracted CD
Track | Start | Length | Start sector | End sector --------------------------------------------------------- 1 | 0:00.00 | 3:51.43 | 0 | 17367 2 | 3:51.43 | 1:05.10 | 17368 | 22252 3 | 4:56.53 | 4:28.23 | 22253 | 42375 4 | 9:25.01 | 1:10.41 | 42376 | 47666 5 | 10:35.42 | 4:19.07 | 47667 | 67098 6 | 14:54.49 | 2:15.07 | 67099 | 77230 7 | 17:09.56 | 5:22.30 | 77231 | 101410 8 | 22:32.11 | 2:59.38 | 101411 | 114873 9 | 25:31.49 | 3:58.28 | 114874 | 132751 10 | 29:30.02 | 3:16.35 | 132752 | 147486 11 | 32:46.37 | 5:53.60 | 147487 | 174021 12 | 38:40.22 | 4:10.62 | 174022 | 192833 13 | 42:51.09 | 3:59.19 | 192834 | 210777 14 | 46:50.28 | 2:49.06 | 210778 | 223458 15 | 49:39.34 | 24:31.31 | 223459 | 333814
Range status and errors
Selected range
Filename D:\Dune Discography\albums\1998 - Forever And Ever (7243 8 46965 2 8)\Dune & The London Session Orchestra - Forever And Ever (7243 8 46965 2 8) (1998).wav
Peak level 98.0 % Extraction speed 8.0 X Range quality 100.0 % Test CRC B9155026 Copy CRC B9155026 Copy OK
No errors occurred
AccurateRip summary
Track 1 accurately ripped (confidence 15) [5348C503] (AR v2)Track 2 accurately ripped (confidence 16) [5479FCF7] (AR v2)Track 3 accurately ripped (confidence 16) [8A2F98BD] (AR v2)Track 4 accurately ripped (confidence 16) [00108C3E] (AR v2)Track 5 accurately ripped (confidence 16) [F10AA169] (AR v2)Track 6 accurately ripped (confidence 16) [2CE78522] (AR v2)Track 7 accurately ripped (confidence 16) [AAC5D667] (AR v2)Track 8 accurately ripped (confidence 16) [B89BE0FD] (AR v2)Track 9 accurately ripped (confidence 16) [38507EA9] (AR v2)Track 10 accurately ripped (confidence 16) [CA35A89F] (AR v2)Track 11 accurately ripped (confidence 16) [542A0AD7] (AR v2)Track 12 accurately ripped (confidence 16) [74D07DF4] (AR v2)Track 13 accurately ripped (confidence 16) [3D7158FC] (AR v2)Track 14 accurately ripped (confidence 16) [4A8EC9C5] (AR v2)Track 15 accurately ripped (confidence 15) [49A83332] (AR v2)
All tracks accurately ripped
End of status report
==== Log checksum 2BB6530908FBC8514B5E43EDBDA5507EA9474C45E076F66B1EACFD2321C97F51 ====

2000 - History - The Very Best Of

Жанр: Happy Hardcore / Techno / Electronic
Носитель: CD
Страна-производитель диска (релиза): EU
Год издания: 2000
Издатель (лейбл): Orbit Records GmbH
Номер по каталогу: 8 50379 0
Страна исполнителя (группы): Germany
Аудиокодек: FLAC (*.flac)
Тип рипа: image+.cue
Битрейт аудио: lossless
Продолжительность: 00:53:29
Источник (релизер): рип собственного диска
Наличие сканов в содержимом раздачи: да
Треклист:
01. Hardcore Vibes (Radio Edit - vs Trubblemaker) (3:18)
02. Are You Ready To Fly (Radio Edit) (3:34)
03. Can't Stop Raving (Video Mix) (3:36)
04. Rainbow To The Stars (Video Mix) (3:29)
05. Hand In Hand (Video Mix) (3:46)
06. Million Miles From Home (4:00)
07. Who Wants To Live Forever (Komakino Rmx Cut) (4:41)
08. Nothing Compares 2 U (Beam & Yanou Radio Cut) (3:46)
09. Keep The Secret (Radio Edit) (3:28)
10. Electric Heaven (Kay Cee Rmx Cut) (4:26)
11. Dark Side Of The Moon (Video Mix) (3:18)
12. Back To The Future (3:50)
13. Here I Am (3:55)
14. Space Invaders (4:15)
Лог создания рипа
Exact Audio Copy V1.0 beta 3 from 29. August 2011
EAC extraction logfile from 12. May 2015, 20:39
Dune / History
Used drive : PIONEER BD-RW BDR-207D Adapter: 1 ID: 0
Read mode : SecureUtilize accurate stream : YesDefeat audio cache : YesMake use of C2 pointers : No
Read offset correction : 667Overread into Lead-In and Lead-Out : NoFill up missing offset samples with silence : YesDelete leading and trailing silent blocks : NoNull samples used in CRC calculations : YesUsed interface : Native Win32 interface for Win NT & 2000
Used output format : User Defined EncoderSelected bitrate : 128 kBit/sQuality : HighAdd ID3 tag : NoCommand line compressor : C:\Program Files (x86)\Exact Audio Copy\Flac\flac.exeAdditional command line options : -V -8 -T "Date=%year%" -T "Genre=%genre%" %source%
TOC of the extracted CD
Track | Start | Length | Start sector | End sector --------------------------------------------------------- 1 | 0:00.00 | 3:18.07 | 0 | 14856 2 | 3:18.07 | 3:34.35 | 14857 | 30941 3 | 6:52.42 | 3:36.20 | 30942 | 47161 4 | 10:28.62 | 3:29.25 | 47162 | 62861 5 | 13:58.12 | 3:46.70 | 62862 | 79881 6 | 17:45.07 | 4:00.55 | 79882 | 97936 7 | 21:45.62 | 4:41.38 | 97937 | 119049 8 | 26:27.25 | 3:46.42 | 119050 | 136041 9 | 30:13.67 | 3:28.45 | 136042 | 151686 10 | 33:42.37 | 4:26.45 | 151687 | 171681 11 | 38:09.07 | 3:18.30 | 171682 | 186561 12 | 41:27.37 | 3:50.60 | 186562 | 203871 13 | 45:18.22 | 3:55.33 | 203872 | 221529 14 | 49:13.55 | 4:15.35 | 221530 | 240689 15 | 56:01.15 | 14:36.02 | 252090 | 317791
Range status and errors
Selected range
Filename D:\Dune Discography\albums\2000 - History - The Very Best Of (8 50379 0)\Dune - History - The Very Best Of (8 50379 0) (2000).wav
Peak level 100.0 % Extraction speed 7.2 X Range quality 100.0 % Test CRC 3AFAF101 Copy CRC 3AFAF101 Copy OK
No errors occurred
AccurateRip summary
Track 1 accurately ripped (confidence 10) [3F1D3EDF] (AR v2)Track 2 accurately ripped (confidence 10) [82134051] (AR v2)Track 3 accurately ripped (confidence 10) [06238C69] (AR v2)Track 4 accurately ripped (confidence 10) [7534EFDD] (AR v2)Track 5 accurately ripped (confidence 10) [D4A6E1AA] (AR v2)Track 6 accurately ripped (confidence 10) [D9C62029] (AR v2)Track 7 accurately ripped (confidence 10) [043B5B05] (AR v2)Track 8 accurately ripped (confidence 10) [4BAA35FC] (AR v2)Track 9 accurately ripped (confidence 10) [BE0C5CBE] (AR v2)Track 10 accurately ripped (confidence 10) [8D9A61CC] (AR v2)Track 11 accurately ripped (confidence 10) [252D26A3] (AR v2)Track 12 accurately ripped (confidence 10) [3D62EC28] (AR v2)Track 13 accurately ripped (confidence 10) [81E00EC1] (AR v2)Track 14 accurately ripped (confidence 10) [B9CCB76E] (AR v2)
All tracks accurately ripped
End of status report
==== Log checksum E621AC9951630D8F6A21EEE1C378064B6AA4EABE1D54B17A330A1B13CE7C02E3 ====

Singles:

1995 - Hardcore Vibes
Жанр: Happy Hardcore / Hard Trance
Носитель: CD
Страна-производитель диска (релиза): EU
Год издания: 1995
Издатель (лейбл): Urban / Motor Music GmbH
Номер по каталогу: 851 322-2
Страна исполнителя (группы): Germany
Аудиокодек: FLAC (*.flac)
Тип рипа: image+.cue
Битрейт аудио: lossless
Продолжительность: 00:14:51
Источник (релизер): рип собственного диска
Наличие сканов в содержимом раздачи: да
Треклист:
01. Hardcore Vibes (South Bound Mix) (4:52)
02. Hardcore Vibes (Good Vibes Mix) (5:37)
03. Hardcore Vibes (Club Mix) (4:21)

Лог создания рипа

Exact Audio Copy V1.0 beta 3 from 29. August 2011
EAC extraction logfile from 2. June 2015, 22:03
Dune / Hardcore Vibes
Used drive : PIONEER BD-RW BDR-207D Adapter: 1 ID: 0
Read mode : SecureUtilize accurate stream : YesDefeat audio cache : YesMake use of C2 pointers : No
Read offset correction : 667Overread into Lead-In and Lead-Out : NoFill up missing offset samples with silence : YesDelete leading and trailing silent blocks : NoNull samples used in CRC calculations : YesUsed interface : Native Win32 interface for Win NT & 2000
Used output format : User Defined EncoderSelected bitrate : 128 kBit/sQuality : HighAdd ID3 tag : NoCommand line compressor : C:\Program Files (x86)\Exact Audio Copy\Flac\flac.exeAdditional command line options : -V -8 -T "Date=%year%" -T "Genre=%genre%" %source%
TOC of the extracted CD
Track | Start | Length | Start sector | End sector --------------------------------------------------------- 1 | 0:00.32 | 4:52.03 | 32 | 21934 2 | 4:52.35 | 5:37.02 | 21935 | 47211 3 | 10:29.37 | 4:21.33 | 47212 | 66819
Range status and errors
Selected range
Filename D:\Dune Discography\singles\1995 - Hardcore Vibes (851 322-2)\Dune - Hardcore Vibes (851 322-2) (1995).wav
Peak level 95.4 % Extraction speed 1.3 X Range quality 100.0 % Test CRC B576B990 Copy CRC B576B990 Copy OK
No errors occurred
AccurateRip summary
Track 1 accurately ripped (confidence 35) [A352EBBB] (AR v2)Track 2 accurately ripped (confidence 34) [5783C5A5] (AR v2)Track 3 accurately ripped (confidence 36) [C30BD9BB] (AR v2)
All tracks accurately ripped
End of status report
==== Log checksum 2B35872118A11F75540E1DA6D6549A1210B229863C3ECE8042CBB213B2F6F373 ====

1995 - Hardcore Vibes (Remix)

Жанр: Happy Hardcore / Techno
Носитель: CD
Страна-производитель диска (релиза): EU
Год издания: 1995
Издатель (лейбл): Urban / Motor Music GmbH
Номер по каталогу: 851 599-2
Страна исполнителя (группы): Germany
Аудиокодек: FLAC (*.flac)
Тип рипа: image+.cue
Битрейт аудио: lossless
Продолжительность: 00:27:57
Источник (релизер): рип собственного диска
Наличие сканов в содержимом раздачи: да
Треклист:
01. Hardcore Vibes (Ravers Nature Remix) (4:46)
02. Hardcore Vibes (Kitchen Remix) (7:16)
03. Hardcore Vibes (Nonstop Remix) (4:59)
04. Hardcore Vibes (Eleven Minutes Of Hardcore Madness) (10:55)
Лог создания рипа
Exact Audio Copy V1.0 beta 3 from 29. August 2011
EAC extraction logfile from 2. June 2015, 21:05
Dune / Hardcore Vibes Remix
Used drive : PIONEER BD-RW BDR-207D Adapter: 1 ID: 0
Read mode : SecureUtilize accurate stream : YesDefeat audio cache : YesMake use of C2 pointers : No
Read offset correction : 667Overread into Lead-In and Lead-Out : NoFill up missing offset samples with silence : YesDelete leading and trailing silent blocks : NoNull samples used in CRC calculations : YesUsed interface : Native Win32 interface for Win NT & 2000
Used output format : User Defined EncoderSelected bitrate : 128 kBit/sQuality : HighAdd ID3 tag : NoCommand line compressor : C:\Program Files (x86)\Exact Audio Copy\Flac\flac.exeAdditional command line options : -V -8 -T "Date=%year%" -T "Genre=%genre%" %source%
TOC of the extracted CD
Track | Start | Length | Start sector | End sector --------------------------------------------------------- 1 | 0:00.32 | 4:46.53 | 32 | 21534 2 | 4:47.10 | 7:16.02 | 21535 | 54236 3 | 12:03.12 | 4:59.28 | 54237 | 76689 4 | 17:02.40 | 10:55.05 | 76690 | 125819
Range status and errors
Selected range
Filename D:\Dune Discography\singles\1995 - Hardcore Vibes (Remix) (851 599-2)\Dune - Hardcore Vibes (Remix) (851 599-2) (1995).wav
Peak level 100.0 % Extraction speed 1.4 X Range quality 99.9 % Test CRC C9AEDE68 Copy CRC C9AEDE68 Copy OK
No errors occurred
AccurateRip summary
Track 1 accurately ripped (confidence 4) [039420B2] (AR v2)Track 2 accurately ripped (confidence 4) [DEF866C3] (AR v2)Track 3 accurately ripped (confidence 4) [82DDBBA3] (AR v2)Track 4 accurately ripped (confidence 4) [60A790A7] (AR v2)
All tracks accurately ripped
End of status report
==== Log checksum 68009FA5EA05E1E420EDEE2208A52EDAEAD3DCE2628ED6F65E246EEF231BD8C9 ====

1995 - Are You Ready To Fly

Жанр: Happy Hardcore / Hard Trance
Носитель: CD
Страна-производитель диска (релиза): EU
Год издания: 1995
Издатель (лейбл): Urban / Motor Music GmbH
Номер по каталогу: 579 737-2
Страна исполнителя (группы): Germany
Аудиокодек: FLAC (*.flac)
Тип рипа: image+.cue
Битрейт аудио: lossless
Продолжительность: 00:17:02
Источник (релизер): рип собственного диска
Наличие сканов в содержимом раздачи: да
Треклист:
01. Are You Ready To Fly (Radio Mix) (3:33)
02. Are You Ready To Fly (12' Mix) (4:42)
03. Sweat Dreams (4:10)
04. Back To Nature (4:36)
Лог создания рипа
Exact Audio Copy V1.0 beta 3 from 29. August 2011
EAC extraction logfile from 2. June 2015, 23:58
Dune / Are You Ready To Fly
Used drive : PIONEER BD-RW BDR-207D Adapter: 1 ID: 0
Read mode : SecureUtilize accurate stream : YesDefeat audio cache : YesMake use of C2 pointers : No
Read offset correction : 667Overread into Lead-In and Lead-Out : NoFill up missing offset samples with silence : YesDelete leading and trailing silent blocks : NoNull samples used in CRC calculations : YesUsed interface : Native Win32 interface for Win NT & 2000
Used output format : User Defined EncoderSelected bitrate : 128 kBit/sQuality : HighAdd ID3 tag : NoCommand line compressor : C:\Program Files (x86)\Exact Audio Copy\Flac\flac.exeAdditional command line options : -V -8 -T "Date=%year%" -T "Genre=%genre%" %source%
TOC of the extracted CD
Track | Start | Length | Start sector | End sector --------------------------------------------------------- 1 | 0:00.33 | 3:33.35 | 33 | 16042 2 | 3:33.68 | 4:42.25 | 16043 | 37217 3 | 8:16.18 | 4:10.55 | 37218 | 56022 4 | 12:26.73 | 4:35.60 | 56023 | 76707
Range status and errors
Selected range
Filename D:\Dune Discography\singles\1995 - Are You Ready To Fly (579 737-2)\Dune - Are You Ready To Fly (579 737-2) (1995).wav
Peak level 98.8 % Extraction speed 1.3 X Range quality 100.0 % Test CRC 3E476B95 Copy CRC 3E476B95 Copy OK
No errors occurred
AccurateRip summary
Track 1 accurately ripped (confidence 24) [DED83D60] (AR v2)Track 2 accurately ripped (confidence 24) [AA527FCC] (AR v2)Track 3 accurately ripped (confidence 25) [E5D33612] (AR v2)Track 4 accurately ripped (confidence 25) [D080ED95] (AR v2)
All tracks accurately ripped
End of status report
==== Log checksum C41821815708DF2A6BAE31B1A4F0A62F9A072CF778302BDA596DFD6036214991 ====

1995 - Are You Ready To Fly (Remix)

Жанр: Happy Hardcore / Techno / Acid / Electro
Носитель: CD
Страна-производитель диска (релиза): EU
Год издания: 1995
Издатель (лейбл): Urban / Motor Music GmbH
Номер по каталогу: 577 027-2
Страна исполнителя (группы): Germany
Аудиокодек: FLAC (*.flac)
Тип рипа: image+.cue
Битрейт аудио: lossless
Продолжительность: 00:21:57
Источник (релизер): рип собственного диска
Наличие сканов в содержимом раздачи: да
Треклист:
01. Are You Ready To Fly (Tom Wax Remix) (6:45)
02. Are You Ready To Fly (Jimmy Miller Remix) (6:17)
03. Are You Ready To Fly (Laser Mix) (4:07)
04. Are You Ready To Fly (Miami Bass Mix) (4:47)
Лог создания рипа
Exact Audio Copy V1.0 beta 3 from 29. August 2011
EAC extraction logfile from 3. June 2015, 0:16
Dune / Are You Ready To Fly (Remixes)
Used drive : PIONEER BD-RW BDR-207D Adapter: 1 ID: 0
Read mode : SecureUtilize accurate stream : YesDefeat audio cache : YesMake use of C2 pointers : No
Read offset correction : 667Overread into Lead-In and Lead-Out : NoFill up missing offset samples with silence : YesDelete leading and trailing silent blocks : NoNull samples used in CRC calculations : YesUsed interface : Native Win32 interface for Win NT & 2000
Used output format : User Defined EncoderSelected bitrate : 128 kBit/sQuality : HighAdd ID3 tag : NoCommand line compressor : C:\Program Files (x86)\Exact Audio Copy\Flac\flac.exeAdditional command line options : -V -8 -T "Date=%year%" -T "Genre=%genre%" %source%
TOC of the extracted CD
Track | Start | Length | Start sector | End sector --------------------------------------------------------- 1 | 0:00.32 | 6:45.23 | 32 | 30429 2 | 6:45.55 | 6:17.20 | 30430 | 58724 3 | 13:03.00 | 4:07.60 | 58725 | 77309 4 | 17:10.60 | 4:46.65 | 77310 | 98824
Range status and errors
Selected range
Filename D:\Dune Discography\singles\1995 - Are You Ready To Fly (Remix) (577 027-2)\Dune - Are You Ready To Fly (Remix) (577 027-2) (1995).wav
Peak level 99.9 % Extraction speed 3.6 X Range quality 100.0 % Test CRC 61377FB8 Copy CRC 61377FB8 Copy OK
No errors occurred
AccurateRip summary
Track 1 accurately ripped (confidence 2) [F141B0BE] (AR v2)Track 2 accurately ripped (confidence 2) [5A07FAE6] (AR v2)Track 3 accurately ripped (confidence 2) [606A53C9] (AR v2)Track 4 accurately ripped (confidence 2) [6B8E4958] (AR v2)
All tracks accurately ripped
End of status report
==== Log checksum A565B3704AC56FC2912B95737E959781AC6E1A191BA10196BC8E1DCA14BC6196 ====

1995 - Can't Stop Raving

Жанр: Happy Hardcore / Hard Trance / Ambient
Носитель: CD
Страна-производитель диска (релиза): EU
Год издания: 1995
Издатель (лейбл): Urban / Motor Music GmbH
Номер по каталогу: 577 365-2
Страна исполнителя (группы): Germany
Аудиокодек: FLAC (*.flac)
Тип рипа: image+.cue
Битрейт аудио: lossless
Продолжительность: 00:17:35
Источник (релизер): рип собственного диска
Наличие сканов в содержимом раздачи: да
Треклист:
01. Can't Stop Raving (Video Mix) (3:36)
02. Can't Stop Raving (Club Mix) (4:56)
03. Can't Stop Raving (12 Inch Mix) (5:10)
04. Can't Stop Raving (Vocoder Mix) (3:52)
Лог создания рипа
Exact Audio Copy V1.0 beta 3 from 29. August 2011
EAC extraction logfile from 2. June 2015, 22:41
Dune / Can't Stop Raving
Used drive : PIONEER BD-RW BDR-207D Adapter: 1 ID: 0
Read mode : SecureUtilize accurate stream : YesDefeat audio cache : YesMake use of C2 pointers : No
Read offset correction : 667Overread into Lead-In and Lead-Out : NoFill up missing offset samples with silence : YesDelete leading and trailing silent blocks : NoNull samples used in CRC calculations : YesUsed interface : Native Win32 interface for Win NT & 2000
Used output format : User Defined EncoderSelected bitrate : 128 kBit/sQuality : HighAdd ID3 tag : NoCommand line compressor : C:\Program Files (x86)\Exact Audio Copy\Flac\flac.exeAdditional command line options : -V -8 -T "Date=%year%" -T "Genre=%genre%" %source%
TOC of the extracted CD
Track | Start | Length | Start sector | End sector --------------------------------------------------------- 1 | 0:00.33 | 3:36.25 | 33 | 16257 2 | 3:36.58 | 4:56.07 | 16258 | 38464 3 | 8:32.65 | 5:10.25 | 38465 | 61739 4 | 13:43.15 | 3:52.05 | 61740 | 79144
Range status and errors
Selected range
Filename D:\Dune Discography\singles\1995 - Can't Stop Raving (577 365-2)\Dune - Can't Stop Raving (577 365-2) (1995).wav
Peak level 98.8 % Extraction speed 1.3 X Range quality 100.0 % Test CRC 99428F10 Copy CRC 99428F10 Copy OK
No errors occurred
AccurateRip summary
Track 1 accurately ripped (confidence 30) [5779BDA0] (AR v2)Track 2 accurately ripped (confidence 31) [90B39E89] (AR v2)Track 3 accurately ripped (confidence 32) [66065C9A] (AR v2)Track 4 accurately ripped (confidence 31) [9753C0F1] (AR v2)
All tracks accurately ripped
End of status report
==== Log checksum A77F211C562B6D6721087F21B587249D72FC62F811F17DF59AF3F33CF1DF22EF ====

1995 - Can't Stop Raving (Remix)

Жанр: Happy Hardcore / Trance / Downtempo
Носитель: CD
Страна-производитель диска (релиза): EU
Год издания: 1995
Издатель (лейбл): Urban / Motor Music GmbH
Номер по каталогу: 577 695-2
Страна исполнителя (группы): Germany
Аудиокодек: FLAC (*.flac)
Тип рипа: image+.cue
Битрейт аудио: lossless
Продолжительность: 00:18:43
Источник (релизер): рип собственного диска
Наличие сканов в содержимом раздачи: да
Треклист:
01. Can't Stop Raving (Revil O Remix) (7:57)
02. Can't Stop Raving (Montini Experience Remix) (6:29)
03. Can't Stop Raving (Dune Remix) (4:16)
Лог создания рипа
Exact Audio Copy V1.0 beta 3 from 29. August 2011
EAC extraction logfile from 2. June 2015, 23:13
Dune / Can't Stop Raving (Remix)
Used drive : PIONEER BD-RW BDR-207D Adapter: 1 ID: 0
Read mode : SecureUtilize accurate stream : YesDefeat audio cache : YesMake use of C2 pointers : No
Read offset correction : 667Overread into Lead-In and Lead-Out : NoFill up missing offset samples with silence : YesDelete leading and trailing silent blocks : NoNull samples used in CRC calculations : YesUsed interface : Native Win32 interface for Win NT & 2000
Used output format : User Defined EncoderSelected bitrate : 128 kBit/sQuality : HighAdd ID3 tag : NoCommand line compressor : C:\Program Files (x86)\Exact Audio Copy\Flac\flac.exeAdditional command line options : -V -8 -T "Date=%year%" -T "Genre=%genre%" %source%
TOC of the extracted CD
Track | Start | Length | Start sector | End sector --------------------------------------------------------- 1 | 0:00.32 | 7:57.38 | 32 | 35844 2 | 7:57.70 | 6:29.42 | 35845 | 65061 3 | 14:27.37 | 4:15.70 | 65062 | 84256
Range status and errors
Selected range
Filename D:\Dune Discography\singles\1995 - Can't Stop Raving (Remix) (577 695-2)\Dune - Can't Stop Raving (Remix) (577 695-2) (1995).wav
Peak level 98.8 % Extraction speed 1.3 X Range quality 100.0 % Test CRC 2E2FB2F0 Copy CRC 2E2FB2F0 Copy OK
No errors occurred
AccurateRip summary
Track 1 accurately ripped (confidence 3) [61345131] (AR v2)Track 2 accurately ripped (confidence 3) [BB9B3013] (AR v2)Track 3 accurately ripped (confidence 3) [23D87607] (AR v2)
All tracks accurately ripped
End of status report
==== Log checksum E5F11E80D22BF7112D788885211D83ED6961C34757A0DE06767E170173B49844 ====

1996 - Rainbow To The Stars

Жанр: Happy Hardcore
Носитель: CD
Страна-производитель диска (релиза): EU
Год издания: 1996
Издатель (лейбл): Orbit Records GmbH / Virgin
Номер по каталогу: 8 93408 2
Страна исполнителя (группы): Germany
Аудиокодек: FLAC (*.flac)
Тип рипа: image+.cue
Битрейт аудио: lossless
Продолжительность: 00:14:55
Источник (релизер): рип собственного диска
Наличие сканов в содержимом раздачи: да
Треклист:
01. Rainbow To The Stars (Video Mix) (3:31)
02. Rainbow To The Stars (Jimmy Miller Live Mix) (6:28)
03. Rainbow To The Stars (12-Inch Mix) (4:54)
Лог создания рипа
Exact Audio Copy V1.0 beta 3 from 29. August 2011
EAC extraction logfile from 3. June 2015, 7:24
Dune / Rainbow To The Stars
Used drive : PIONEER BD-RW BDR-207D Adapter: 1 ID: 0
Read mode : SecureUtilize accurate stream : YesDefeat audio cache : YesMake use of C2 pointers : No
Read offset correction : 667Overread into Lead-In and Lead-Out : NoFill up missing offset samples with silence : YesDelete leading and trailing silent blocks : NoNull samples used in CRC calculations : YesUsed interface : Native Win32 interface for Win NT & 2000
Used output format : User Defined EncoderSelected bitrate : 128 kBit/sQuality : HighAdd ID3 tag : NoCommand line compressor : C:\Program Files (x86)\Exact Audio Copy\Flac\flac.exeAdditional command line options : -V -8 -T "Date=%year%" -T "Genre=%genre%" %source%
TOC of the extracted CD
Track | Start | Length | Start sector | End sector --------------------------------------------------------- 1 | 0:00.00 | 3:31.29 | 0 | 15853 2 | 3:31.29 | 6:28.69 | 15854 | 45022 3 | 10:00.23 | 4:54.19 | 45023 | 67091
Range status and errors
Selected range
Filename D:\Dune Discography\singles\1996 - Rainbow To The Stars (8 93408 2)\Dune - Rainbow To The Stars (8 93408 2) (1996).wav
Peak level 98.8 % Extraction speed 3.4 X Range quality 100.0 % Test CRC 1029DDEA Copy CRC 1029DDEA Copy OK
No errors occurred
AccurateRip summary
Track 1 accurately ripped (confidence 24) [AC8A196C] (AR v2)Track 2 accurately ripped (confidence 25) [6DA58E7D] (AR v2)Track 3 accurately ripped (confidence 25) [FE4EAE5B] (AR v2)
All tracks accurately ripped
End of status report
==== Log checksum A543A96CDC6F53DC6BC0246B9F45195B92C278175CB6439188A1A8016D747D9A ====

1996 - Rainbow To The Stars (Remix)

Жанр: Happy Hardcore / Breakbeat / Euro House
Носитель: CD
Страна-производитель диска (релиза): EU
Год издания: 1996
Издатель (лейбл): Orbit Records GmbH / Virgin
Номер по каталогу: 8 93417 2
Страна исполнителя (группы): Germany
Аудиокодек: FLAC (*.flac)
Тип рипа: image+.cue
Битрейт аудио: lossless
Продолжительность: 00:18:54
Источник (релизер): рип собственного диска
Наличие сканов в содержимом раздачи: да
Треклист:
01. Rainbow To The Stars (Jam & Spoon Remix) (7:32)
02. Rainbow To The Stars (Dune Remix) (5:28)
03. Rainbow To The Stars (Sweetbox Echo Remix) (5:53)
Лог создания рипа
Exact Audio Copy V1.0 beta 6 from 9. April 2015
EAC extraction logfile from 4. June 2015, 8:17
Dune / Rainbow To The Stars (Remix)
Used drive : ASUS DRW-24B5ST Adapter: 1 ID: 0
Read mode : SecureUtilize accurate stream : YesDefeat audio cache : YesMake use of C2 pointers : No
Read offset correction : 6Overread into Lead-In and Lead-Out : NoFill up missing offset samples with silence : YesDelete leading and trailing silent blocks : NoNull samples used in CRC calculations : YesUsed interface : Native Win32 interface for Win NT & 2000
Used output format : User Defined EncoderSelected bitrate : 128 kBit/sQuality : HighAdd ID3 tag : NoCommand line compressor : C:\Program Files\Exact Audio Copy\Flac\flac.exeAdditional command line options : -V -8 -T "Date=%year%" -T "Genre=%genre%" %source%
TOC of the extracted CD
Track | Start | Length | Start sector | End sector --------------------------------------------------------- 1 | 0:00.00 | 7:32.33 | 0 | 33932 2 | 7:32.33 | 5:28.33 | 33933 | 58565 3 | 13:00.66 | 5:53.17 | 58566 | 85057
Range status and errors
Selected range
Filename D:\Dune Discography\singles\1996 - Rainbow To The Stars (Remix) (8 93417 2)\Dune - Rainbow To The Stars (Remix) (8 93417 2) (1996).wav
Peak level 98.8 % Extraction speed 6.6 X Range quality 99.9 % Test CRC 5FE6D5E3 Copy CRC 5FE6D5E3 Copy OK
No errors occurred
AccurateRip summary
Track 1 accurately ripped (confidence 4) [E9615226] (AR v2)Track 2 accurately ripped (confidence 3) [C27C37F5] (AR v2)Track 3 accurately ripped (confidence 4) [798BB049] (AR v2)
All tracks accurately ripped
End of status report
---- CUETools DB Plugin V2.1.6
[CTDB TOCID: DF0N34lw9pDUg84f5flSdRc9zqE-] foundSubmit result: already submittedTrack | CTDB Status 1 | (4/4) Accurately ripped 2 | (3/4) Accurately ripped 3 | (4/4) Accurately ripped
==== Log checksum AFA4DB66FDB16AC301AD6AC81C0092794C1A3A81805D63F7665A62337EDF27FD ====

1996 - Hand In Hand

Жанр: Happy Hardcore / Eurodance
Носитель: CD
Страна-производитель диска (релиза): EU
Год издания: 1996
Издатель (лейбл): Orbit Records GmbH / Virgin
Номер по каталогу: 8 93527 2
Страна исполнителя (группы): Germany
Аудиокодек: FLAC (*.flac)
Тип рипа: image+.cue
Битрейт аудио: lossless
Продолжительность: 00:19:20
Источник (релизер): рип собственного диска
Наличие сканов в содержимом раздачи: да
Треклист:
01. Hand In Hand (Video Mix) (3:47)
02. Hand In Hand (Head On Head) (5:32)
03. Hand In Hand (12' Mix) (5:06)
04. Hand In Hand (Jimmy Miller Remix) (4:53)
Лог создания рипа
Exact Audio Copy V1.0 beta 3 from 29. August 2011
EAC extraction logfile from 3. June 2015, 0:46
Dune / Hand In Hand
Used drive : PIONEER BD-RW BDR-207D Adapter: 1 ID: 0
Read mode : SecureUtilize accurate stream : YesDefeat audio cache : YesMake use of C2 pointers : No
Read offset correction : 667Overread into Lead-In and Lead-Out : NoFill up missing offset samples with silence : YesDelete leading and trailing silent blocks : NoNull samples used in CRC calculations : YesUsed interface : Native Win32 interface for Win NT & 2000
Used output format : User Defined EncoderSelected bitrate : 128 kBit/sQuality : HighAdd ID3 tag : NoCommand line compressor : C:\Program Files (x86)\Exact Audio Copy\Flac\flac.exeAdditional command line options : -V -8 -T "Date=%year%" -T "Genre=%genre%" %source%
TOC of the extracted CD
Track | Start | Length | Start sector | End sector --------------------------------------------------------- 1 | 0:00.00 | 3:47.74 | 0 | 17098 2 | 3:47.74 | 5:32.27 | 17099 | 42025 3 | 9:20.26 | 5:06.48 | 42026 | 65023 4 | 14:26.74 | 4:52.64 | 65024 | 86987
Range status and errors
Selected range
Filename D:\Dune Discography\singles\1996 - Hand In Hand (8 93527 2)\Dune - Hand In Hand (8 93527 2) (1996).wav
Peak level 98.8 % Extraction speed 1.5 X Range quality 100.0 % Test CRC 36A8BF49 Copy CRC 36A8BF49 Copy OK
No errors occurred
AccurateRip summary
Track 1 accurately ripped (confidence 15) [9C9BEF45] (AR v2)Track 2 accurately ripped (confidence 16) [2DBEB0EC] (AR v2)Track 3 accurately ripped (confidence 16) [85F25618] (AR v2)Track 4 accurately ripped (confidence 16) [363355B6] (AR v2)
All tracks accurately ripped
End of status report
==== Log checksum A65EA627AB095DD3D62C8DAE8F972FDB67449A3765E774BEDD891AA156605A4F ====

1996 - Million Miles From Home

Жанр: Happy Hardcore / Hard Trance / Acid
Носитель: CD
Страна-производитель диска (релиза): EU
Год издания: 1996
Издатель (лейбл): Orbit Records GmbH / Virgin
Номер по каталогу: 893498 2
Страна исполнителя (группы): Germany
Аудиокодек: FLAC (*.flac)
Тип рипа: image+.cue
Битрейт аудио: lossless
Продолжительность: 00:20:14
Источник (релизер): рип собственного диска
Наличие сканов в содержимом раздачи: да
Треклист:
01. Million Miles From Home (Video Mix) (4:00)
02. Million Miles From Home (12'' Mix) (5:58)
03. Million Miles From Home (B-Side Mix) (5:37)
04. Million Miles From Home (Vocoder Mix) (4:53)
Лог создания рипа
Exact Audio Copy V1.0 beta 3 from 29. August 2011
EAC extraction logfile from 3. June 2015, 1:12
Dune / Million Miles From Home
Used drive : PIONEER BD-RW BDR-207D Adapter: 1 ID: 0
Read mode : SecureUtilize accurate stream : YesDefeat audio cache : YesMake use of C2 pointers : No
Read offset correction : 667Overread into Lead-In and Lead-Out : NoFill up missing offset samples with silence : YesDelete leading and trailing silent blocks : NoNull samples used in CRC calculations : YesUsed interface : Native Win32 interface for Win NT & 2000
Used output format : User Defined EncoderSelected bitrate : 128 kBit/sQuality : HighAdd ID3 tag : NoCommand line compressor : C:\Program Files (x86)\Exact Audio Copy\Flac\flac.exeAdditional command line options : -V -8 -T "Date=%year%" -T "Genre=%genre%" %source%
TOC of the extracted CD
Track | Start | Length | Start sector | End sector --------------------------------------------------------- 1 | 0:00.00 | 4:00.57 | 0 | 18056 2 | 4:00.57 | 5:58.54 | 18057 | 44960 3 | 9:59.36 | 5:37.53 | 44961 | 70288 4 | 15:37.14 | 4:36.62 | 70289 | 91050
Range status and errors
Selected range
Filename D:\Dune Discography\singles\1996 - Million Miles From Home (893498 2)\Dune - Million Miles From Home (893498 2) (1996).wav
Peak level 98.8 % Extraction speed 2.2 X Range quality 100.0 % Test CRC 2584890B Copy CRC 2584890B Copy OK
No errors occurred
AccurateRip summary
Track 1 accurately ripped (confidence 16) [09ADDF37] (AR v2)Track 2 accurately ripped (confidence 19) [AF901294] (AR v2)Track 3 accurately ripped (confidence 17) [1E04D59D] (AR v2)Track 4 accurately ripped (confidence 17) [986F2E59] (AR v2)
All tracks accurately ripped
End of status report
==== Log checksum 1F16678F5CADF519B6705CFCABE801E15E9D4888382E6A8DA0677EA61C37B9CC ====

1996 - Who Wants To Live Forever

Жанр: Modern Classical / Breakbeat / Trance / Downtempo
Носитель: CD
Страна-производитель диска (релиза): EU
Год издания: 1996
Издатель (лейбл): Orbit Records GmbH / Virgin
Номер по каталогу: 893924 2
Страна исполнителя (группы): Germany
Аудиокодек: FLAC (*.flac)
Тип рипа: image+.cue
Битрейт аудио: lossless
Продолжительность: 00:28:20
Источник (релизер): рип собственного диска
Наличие сканов в содержимом раздачи: да
Треклист:
01. Who Wants To Live Forever (Sixtysix Radio Mix) (3:57)
02. Who Wants To Live Forever (South Bound Mix) (4:01)
03. Highland Trilogy: One Day In Glencoe (4:51)
04. Highland Trilogy: Valley Of Tears (5:01)
05. Highland Trilogy: In The Air Part II (10:29)
Лог создания рипа
Exact Audio Copy V1.0 beta 6 from 9. April 2015
EAC extraction logfile from 4. June 2015, 8:33
Dune / Who Wants To Live Forever
Used drive : ASUS DRW-24B5ST Adapter: 1 ID: 0
Read mode : SecureUtilize accurate stream : YesDefeat audio cache : YesMake use of C2 pointers : No
Read offset correction : 6Overread into Lead-In and Lead-Out : NoFill up missing offset samples with silence : YesDelete leading and trailing silent blocks : NoNull samples used in CRC calculations : YesUsed interface : Native Win32 interface for Win NT & 2000
Used output format : User Defined EncoderSelected bitrate : 128 kBit/sQuality : HighAdd ID3 tag : NoCommand line compressor : C:\Program Files\Exact Audio Copy\Flac\flac.exeAdditional command line options : -V -8 -T "Date=%year%" -T "Genre=%genre%" %source%
TOC of the extracted CD
Track | Start | Length | Start sector | End sector --------------------------------------------------------- 1 | 0:00.00 | 3:57.03 | 0 | 17777 2 | 3:57.03 | 4:01.04 | 17778 | 35856 3 | 7:58.07 | 4:51.37 | 35857 | 57718 4 | 12:49.44 | 5:01.14 | 57719 | 80307 5 | 17:50.58 | 10:28.72 | 80308 | 127479
Range status and errors
Selected range
Filename D:\Dune Discography\singles\1996 - Who Wants To Live Forever (893924 2)\Dune - Who Wants To Live Forever (893924 2) (1996).wav
Peak level 98.8 % Extraction speed 7.4 X Range quality 100.0 % Test CRC 367FB493 Copy CRC 367FB493 Copy OK
No errors occurred
AccurateRip summary
Track 1 accurately ripped (confidence 61) [5637FF93] (AR v2)Track 2 accurately ripped (confidence 59) [9656C73F] (AR v2)Track 3 accurately ripped (confidence 59) [14BEE7B1] (AR v2)Track 4 accurately ripped (confidence 59) [D9771A84] (AR v2)Track 5 accurately ripped (confidence 57) [CE520BA5] (AR v2)
All tracks accurately ripped
End of status report
---- CUETools DB Plugin V2.1.6
[CTDB TOCID: .oUgyojZFthK1U2BTpmF0wJeNnk-] foundSubmit result: already submittedTrack | CTDB Status 1 | (85/87) Accurately ripped 2 | (87/87) Accurately ripped 3 | (87/87) Accurately ripped 4 | (87/87) Accurately ripped 5 | (87/87) Accurately ripped
==== Log checksum 72C86FC57536BD08C079BC1407F722D56EE5F74B919E4DB9CE6C814CC56CB073 ====

1996 - Who Wants To Live Forever (Remixes)

Жанр: Trance / House / Downtempo
Носитель: CD
Страна-производитель диска (релиза): EU
Год издания: 1996
Издатель (лейбл): Orbit Records GmbH / Virgin
Номер по каталогу: 894011 2
Страна исполнителя (группы): Germany
Аудиокодек: FLAC (*.flac)
Тип рипа: image+.cue
Битрейт аудио: lossless
Продолжительность: 00:17:54
Источник (релизер): рип собственного диска
Наличие сканов в содержимом раздачи: да
Треклист:
01. Who Wants To Live Forever (Komakino Remix) (5:34)
02. Who Wants To Live Forever (Future Breeze Remix) (7:05)
03. In The Air Part 1 (5:13)
Лог создания рипа
Exact Audio Copy V1.0 beta 3 from 29. August 2011
EAC extraction logfile from 3. June 2015, 7:06
Dune / Who Wants To Live Forever (Remixes)
Used drive : PIONEER BD-RW BDR-207D Adapter: 1 ID: 0
Read mode : SecureUtilize accurate stream : YesDefeat audio cache : YesMake use of C2 pointers : No
Read offset correction : 667Overread into Lead-In and Lead-Out : NoFill up missing offset samples with silence : YesDelete leading and trailing silent blocks : NoNull samples used in CRC calculations : YesUsed interface : Native Win32 interface for Win NT & 2000
Used output format : User Defined EncoderSelected bitrate : 128 kBit/sQuality : HighAdd ID3 tag : NoCommand line compressor : C:\Program Files (x86)\Exact Audio Copy\Flac\flac.exeAdditional command line options : -V -8 -T "Date=%year%" -T "Genre=%genre%" %source%
TOC of the extracted CD
Track | Start | Length | Start sector | End sector --------------------------------------------------------- 1 | 0:00.00 | 5:34.60 | 0 | 25109 2 | 5:34.60 | 7:05.60 | 25110 | 57044 3 | 12:40.45 | 5:12.73 | 57045 | 80517
Range status and errors
Selected range
Filename D:\Dune Discography\singles\1996 - Who Wants To Live Forever (Remixes) (894011 2)\Dune - Who Wants To Live Forever (Remixes) (894011 2) (1996).wav
Peak level 98.8 % Extraction speed 3.5 X Range quality 100.0 % Test CRC 6E847928 Copy CRC 6E847928 Copy OK
No errors occurred
AccurateRip summary
Track 1 accurately ripped (confidence 5) [7D87A432] (AR v2)Track 2 accurately ripped (confidence 5) [37D92063] (AR v2)Track 3 accurately ripped (confidence 5) [4C4B36E8] (AR v2)
All tracks accurately ripped
End of status report
==== Log checksum F879DE8B835E2F6E05720C32157C25D2A80277AE9C7B7CFFF435B28148B778BC ====

1997 - Nothing Compares 2 U

Жанр: Modern Classical / Breakbeat
Носитель: CD
Страна-производитель диска (релиза): EU
Год издания: 1997
Издатель (лейбл): Orbit Records GmbH / Virgin
Номер по каталогу: 8 94130 2
Страна исполнителя (группы): Germany
Аудиокодек: FLAC (*.flac)
Тип рипа: image+.cue
Битрейт аудио: lossless
Продолжительность: 00:13:30
Источник (релизер): рип собственного диска
Наличие сканов в содержимом раздачи: да
Треклист:
01. Nothing Compares 2 U (4:47)
02. So Beautiful (6:42)
03. One Moment (5:13)
Лог создания рипа
Exact Audio Copy V1.0 beta 3 from 29. August 2011
EAC extraction logfile from 3. June 2015, 7:50
Dune / Nothing Compares 2 U
Used drive : PIONEER BD-RW BDR-207D Adapter: 1 ID: 0
Read mode : SecureUtilize accurate stream : YesDefeat audio cache : YesMake use of C2 pointers : No
Read offset correction : 667Overread into Lead-In and Lead-Out : NoFill up missing offset samples with silence : YesDelete leading and trailing silent blocks : NoNull samples used in CRC calculations : YesUsed interface : Native Win32 interface for Win NT & 2000
Used output format : User Defined EncoderSelected bitrate : 128 kBit/sQuality : HighAdd ID3 tag : NoCommand line compressor : C:\Program Files (x86)\Exact Audio Copy\Flac\flac.exeAdditional command line options : -V -8 -T "Date=%year%" -T "Genre=%genre%" %source%
TOC of the extracted CD
Track | Start | Length | Start sector | End sector --------------------------------------------------------- 1 | 0:00.00 | 4:47.01 | 0 | 21525 2 | 4:47.01 | 6:42.24 | 21526 | 51699 3 | 11:29.25 | 2:00.63 | 51700 | 60762
Range status and errors
Selected range
Filename D:\Dune Discography\singles\1997 - Nothing Compares 2 U (8 94130 2)\Dune - Nothing Compares 2 U (8 94130 2) (1997).wav
Peak level 98.8 % Extraction speed 1.4 X Range quality 100.0 % Test CRC 911D809E Copy CRC 911D809E Copy OK
No errors occurred
AccurateRip summary
Track 1 accurately ripped (confidence 4) [C68047E6] (AR v2)Track 2 accurately ripped (confidence 4) [B120F908] (AR v2)Track 3 accurately ripped (confidence 4) [67EDEEBB] (AR v2)
All tracks accurately ripped
End of status report
==== Log checksum 2D0A3AF08CC44A48B9AAA1DD87B6B9EBD03962E025FB7580D116E70220FF4078 ====

1998 - One Of Us (Promo)

Жанр: Modern Classical
Носитель: CD
Страна-производитель диска (релиза): EU
Год издания: 1998
Издатель (лейбл): Orbit Records GmbH / Virgin
Номер по каталогу: none
Страна исполнителя (группы): Germany
Аудиокодек: FLAC (*.flac)
Тип рипа: image+.cue
Битрейт аудио: lossless
Продолжительность: 00:07:37
Источник (релизер): рип собственного диска
Наличие сканов в содержимом раздачи: да
Треклист:
01. One Of Us (Video Mix) (3:51)
02. One Of Us (Radio Mix) (3:46)
Лог создания рипа
Exact Audio Copy V1.0 beta 3 from 29. August 2011
EAC extraction logfile from 25. May 2015, 23:52
Dune & The London Session Orchestra / One Of Us (Promo)
Used drive : PIONEER BD-RW BDR-207D Adapter: 1 ID: 0
Read mode : SecureUtilize accurate stream : YesDefeat audio cache : YesMake use of C2 pointers : No
Read offset correction : 667Overread into Lead-In and Lead-Out : NoFill up missing offset samples with silence : YesDelete leading and trailing silent blocks : NoNull samples used in CRC calculations : YesUsed interface : Native Win32 interface for Win NT & 2000
Used output format : User Defined EncoderSelected bitrate : 128 kBit/sQuality : HighAdd ID3 tag : NoCommand line compressor : C:\Program Files (x86)\Exact Audio Copy\Flac\flac.exeAdditional command line options : -V -8 -T "Date=%year%" -T "Genre=%genre%" %source%
TOC of the extracted CD
Track | Start | Length | Start sector | End sector --------------------------------------------------------- 1 | 0:00.00 | 3:51.43 | 0 | 17367 2 | 3:51.43 | 3:45.55 | 17368 | 34297
Range status and errors
Selected range
Filename D:\Dune Discography\singles\1998 - One Of Us (Promo)\Dune & The London Session Orchestra - One Of Us (Promo) (1998).wav
Peak level 98.8 % Extraction speed 4.9 X Range quality 100.0 % Test CRC BFDE83FA Copy CRC BFDE83FA Copy OK
No errors occurred
AccurateRip summary
Track 1 not present in databaseTrack 2 not present in database
None of the tracks are present in the AccurateRip database
End of status report
==== Log checksum 117BE2C4650EA880F3703C364338FFBC7CEC94CFE5E6C62CF7BCF9ECEF0C0CB9 ====

1998 - One Of Us

Жанр: Modern Classical / House / Ambient
Носитель: CD
Страна-производитель диска (релиза): EU
Год издания: 1998
Издатель (лейбл): Orbit Records GmbH / Virgin
Номер по каталогу: 8 95494 2
Страна исполнителя (группы): Germany
Аудиокодек: FLAC (*.flac)
Тип рипа: image+.cue
Битрейт аудио: lossless
Продолжительность: 00:22:53
Источник (релизер): рип собственного диска
Наличие сканов в содержимом раздачи: да
Треклист:
01. One Of Us (Sixtysix Video Mix) (3:51)
02. One Of Us (Radio Reykjavik Edit) (3:18)
03. One Of Us (Alternative Mix) (3:47)
04. Black Sands (4:41)
05. Destination Keflavik (3:37)
06. Seljalandsfoss (3:36)
Лог создания рипа
Exact Audio Copy V1.0 beta 3 from 29. August 2011
EAC extraction logfile from 3. June 2015, 19:09
Dune & The London Session Orchestra / One Of Us
Used drive : PIONEER BD-RW BDR-207D Adapter: 1 ID: 0
Read mode : SecureUtilize accurate stream : YesDefeat audio cache : YesMake use of C2 pointers : No
Read offset correction : 667Overread into Lead-In and Lead-Out : NoFill up missing offset samples with silence : YesDelete leading and trailing silent blocks : NoNull samples used in CRC calculations : YesUsed interface : Native Win32 interface for Win NT & 2000
Used output format : User Defined EncoderSelected bitrate : 128 kBit/sQuality : HighAdd ID3 tag : NoCommand line compressor : C:\Program Files (x86)\Exact Audio Copy\Flac\flac.exeAdditional command line options : -V -8 -T "Date=%year%" -T "Genre=%genre%" %source%
TOC of the extracted CD
Track | Start | Length | Start sector | End sector --------------------------------------------------------- 1 | 0:00.00 | 3:51.43 | 0 | 17367 2 | 3:51.43 | 3:18.58 | 17368 | 32275 3 | 7:10.26 | 3:47.39 | 32276 | 49339 4 | 10:57.65 | 4:41.44 | 49340 | 70458 5 | 15:39.34 | 3:37.52 | 70459 | 86785 6 | 19:17.11 | 3:36.16 | 86786 | 103001
Range status and errors
Selected range
Filename D:\Dune Discography\singles\1998 - One Of Us (8 95494 2)\Dune & The London Session Orchestra - One Of Us (8 95494 2) (1998).wav
Peak level 98.8 % Extraction speed 1.5 X Range quality 100.0 % Test CRC A385C9E4 Copy CRC A385C9E4 Copy OK
No errors occurred
AccurateRip summary
Track 1 accurately ripped (confidence 3) [00BD55EF] (AR v2)Track 2 accurately ripped (confidence 3) [2952FD3A] (AR v2)Track 3 accurately ripped (confidence 3) [BD5C89B8] (AR v2)Track 4 accurately ripped (confidence 4) [F2941DBA] (AR v2)Track 5 accurately ripped (confidence 4) [7D4ED0BB] (AR v2)Track 6 accurately ripped (confidence 4) [BAF019B9] (AR v2)
All tracks accurately ripped
End of status report
==== Log checksum BBA5EED704FC3D3854C6C98125BBB3E83341CA7450D2BC1083AEEEF0DF1F4251 ====

1998 - Keep The Secret (feat. Vanessa)

Жанр: Progressive Trance / Breakbeat / Speed Garage
Носитель: CD
Страна-производитель диска (релиза): EU
Год издания: 1998
Издатель (лейбл): Orbit Records GmbH / Virgin
Номер по каталогу: 8 95063 2
Страна исполнителя (группы): Germany
Аудиокодек: FLAC (*.flac)
Тип рипа: image+.cue
Битрейт аудио: lossless
Продолжительность: 00:37:15
Источник (релизер): рип собственного диска
Наличие сканов в содержимом раздачи: да
Треклист:
01. Keep The Secret (Radio Edit) (3:28)
02. Keep The Secret (12' Mix) (5:51)
03. Keep The Secret (Talla 2XLC Remix) (7:29)
04. Keep The Secret (Mega'lo Mania Remix) (8:54)
05. Keep The Secret (Coma B. Remix) (6:37)
06. Keep The Secret (Dune Remix) (4:52)
Лог создания рипа
Exact Audio Copy V1.0 beta 3 from 29. August 2011
EAC extraction logfile from 4. June 2015, 18:44
Dune / Keep The Secret
Used drive : PIONEER BD-RW BDR-207D Adapter: 1 ID: 0
Read mode : SecureUtilize accurate stream : YesDefeat audio cache : YesMake use of C2 pointers : No
Read offset correction : 667Overread into Lead-In and Lead-Out : NoFill up missing offset samples with silence : YesDelete leading and trailing silent blocks : NoNull samples used in CRC calculations : YesUsed interface : Native Win32 interface for Win NT & 2000
Used output format : User Defined EncoderSelected bitrate : 128 kBit/sQuality : HighAdd ID3 tag : NoCommand line compressor : C:\Program Files (x86)\Exact Audio Copy\Flac\flac.exeAdditional command line options : -V -8 -T "Date=%year%" -T "Genre=%genre%" %source%
TOC of the extracted CD
Track | Start | Length | Start sector | End sector --------------------------------------------------------- 1 | 0:00.00 | 3:28.26 | 0 | 15625 2 | 3:28.26 | 5:51.24 | 15626 | 41974 3 | 9:19.50 | 7:29.70 | 41975 | 75719 4 | 16:49.45 | 8:54.59 | 75720 | 115828 5 | 25:44.29 | 6:37.54 | 115829 | 145657 6 | 32:22.08 | 4:52.32 | 145658 | 167589
Range status and errors
Selected range
Filename D:\Dune Discography\singles\1998 - Keep The Secret (feat. Vanessa) (8 95063 2)\Dune - Keep The Secret (feat. Vanessa) (8 95063 2) (1998).wav
Peak level 98.8 % Extraction speed 6.7 X Range quality 100.0 % Test CRC 859FC8E4 Copy CRC 859FC8E4 Copy OK
No errors occurred
AccurateRip summary
Track 1 accurately ripped (confidence 8) [824C39F5] (AR v2)Track 2 accurately ripped (confidence 8) [7CC5A8EE] (AR v2)Track 3 accurately ripped (confidence 9) [A1CBE36B] (AR v2)Track 4 accurately ripped (confidence 9) [BA1B18AB] (AR v2)Track 5 accurately ripped (confidence 9) [5F193BD6] (AR v2)Track 6 accurately ripped (confidence 9) [DC17DBED] (AR v2)
All tracks accurately ripped
End of status report
==== Log checksum BBD28293EE8A45B1591FDA937028A471F7B6457061922716590B3F6D287DC99F ====

1998 - Electric Heaven (feat. Vanessa)

Жанр: Electro / Trance / Hard House
Носитель: CD
Страна-производитель диска (релиза): EU
Год издания: 1998
Издатель (лейбл): Orbit Records GmbH / Virgin
Номер по каталогу: 8 95251 2
Страна исполнителя (группы): Germany
Аудиокодек: FLAC (*.flac)
Тип рипа: image+.cue
Битрейт аудио: lossless
Продолжительность: 00:21:39
Источник (релизер): рип собственного диска
Наличие сканов в содержимом раздачи: да
Треклист:
01. Electric Heaven (Radio Edit) (3:11)
02. Electric Heaven (Extended Version) (5:03)
03. Electric Heaven (Blank & Jones Club Cut) (7:36)
04. Electric Heaven (Kay Cee Remix) (5:47)
Лог создания рипа
Exact Audio Copy V1.0 beta 3 from 29. August 2011
EAC extraction logfile from 26. May 2015, 0:11
Dune / Electric Heaven
Used drive : PIONEER BD-RW BDR-207D Adapter: 1 ID: 0
Read mode : SecureUtilize accurate stream : YesDefeat audio cache : YesMake use of C2 pointers : No
Read offset correction : 667Overread into Lead-In and Lead-Out : NoFill up missing offset samples with silence : YesDelete leading and trailing silent blocks : NoNull samples used in CRC calculations : YesUsed interface : Native Win32 interface for Win NT & 2000
Used output format : User Defined EncoderSelected bitrate : 128 kBit/sQuality : HighAdd ID3 tag : NoCommand line compressor : C:\Program Files (x86)\Exact Audio Copy\Flac\flac.exeAdditional command line options : -V -8 -T "Date=%year%" -T "Genre=%genre%" %source%
TOC of the extracted CD
Track | Start | Length | Start sector | End sector --------------------------------------------------------- 1 | 0:00.00 | 3:11.01 | 0 | 14325 2 | 3:11.01 | 5:03.65 | 14326 | 37115 3 | 8:14.66 | 7:36.70 | 37116 | 71385 4 | 15:51.61 | 5:47.11 | 71386 | 97421
Range status and errors
Selected range
Filename D:\Dune Discography\singles\1998 - Electric Heaven (feat. Vanessa) (8 95251 2)\Dune - Electric Heaven (feat. Vanessa) (8 95251 2) (1998).wav
Peak level 98.8 % Extraction speed 3.6 X Range quality 100.0 % Test CRC 13813D8C Copy CRC 13813D8C Copy OK
No errors occurred
AccurateRip summary
Track 1 accurately ripped (confidence 5) [6C7B190A] (AR v2)Track 2 accurately ripped (confidence 5) [A98973BA] (AR v2)Track 3 accurately ripped (confidence 6) [F26528A4] (AR v2)Track 4 accurately ripped (confidence 6) [5BBF6F79] (AR v2)
All tracks accurately ripped
End of status report
==== Log checksum 1597212EF6673C162540C8F1E74C6B1A2AAD557631324EBD233FD39D451B1DD0 ====

1999 - Dark Side Of The Moon

Жанр: Trance / Electro / Happy Hardcore / House
Носитель: CD
Страна-производитель диска (релиза): EU
Год издания: 1999
Издатель (лейбл): Orbit Records GmbH / Virgin
Номер по каталогу: 8 96375 2
Страна исполнителя (группы): Germany
Аудиокодек: FLAC (*.flac)
Тип рипа: image+.cue
Битрейт аудио: lossless
Продолжительность: 00:27:04
Источник (релизер): рип собственного диска
Наличие сканов в содержимом раздачи: да
Треклист:
01. Dark Side Of The Moon (Radio Mix) (3:12)
02. Dark Side Of The Moon (12' Mix) (5:07)
03. Dark Side Of The Moon (Piano Mix) (5:04)
04. Dark Side Of The Moon (Electro Mix) (4:41)
05. Dark Side Of The Moon (Vocoder Mix) (5:41)
06. Dark Side Of The Moon (Video Mix) (3:16)
Лог создания рипа
Exact Audio Copy V1.0 beta 3 from 29. August 2011
EAC extraction logfile from 3. June 2015, 19:25
Dune / Dark Side Of The Moon
Used drive : PIONEER BD-RW BDR-207D Adapter: 1 ID: 0
Read mode : SecureUtilize accurate stream : YesDefeat audio cache : YesMake use of C2 pointers : No
Read offset correction : 667Overread into Lead-In and Lead-Out : NoFill up missing offset samples with silence : YesDelete leading and trailing silent blocks : NoNull samples used in CRC calculations : YesUsed interface : Native Win32 interface for Win NT & 2000
Used output format : User Defined EncoderSelected bitrate : 128 kBit/sQuality : HighAdd ID3 tag : NoCommand line compressor : C:\Program Files (x86)\Exact Audio Copy\Flac\flac.exeAdditional command line options : -V -8 -T "Date=%year%" -T "Genre=%genre%" %source%
TOC of the extracted CD
Track | Start | Length | Start sector | End sector --------------------------------------------------------- 1 | 0:00.00 | 3:12.31 | 0 | 14430 2 | 3:12.31 | 5:07.26 | 14431 | 37481 3 | 8:19.57 | 5:04.64 | 37482 | 60345 4 | 13:24.46 | 4:41.48 | 60346 | 81468 5 | 18:06.19 | 5:41.50 | 81469 | 107093 6 | 23:47.69 | 3:16.29 | 107094 | 121822
Range status and errors
Selected range
Filename D:\Dune Discography\singles\1999 - Dark Side Of The Moon (8 96375 2)\Dune - Dark Side Of The Moon (8 96375 2) (1999).wav
Peak level 100.0 % Extraction speed 6.3 X Range quality 100.0 % Test CRC 0E277983 Copy CRC 0E277983 Copy OK
No errors occurred
AccurateRip summary
Track 1 accurately ripped (confidence 4) [04AD1BBB] (AR v1)Track 2 accurately ripped (confidence 4) [001E7F11] (AR v1)Track 3 accurately ripped (confidence 4) [45E40373] (AR v1)Track 4 accurately ripped (confidence 4) [09ACBF16] (AR v1)Track 5 accurately ripped (confidence 4) [B9A45533] (AR v1)Track 6 accurately ripped (confidence 4) [68854357] (AR v1)
All tracks accurately ripped
End of status report
==== Log checksum 72C3055E2DEA827CD3BF9368B554875FBB9607D19D23AECF640C7442A630CBAC ====

1999 - Dark Side Of The Moon (Remixes)

Жанр: Trance / Breakbeat
Носитель: CD
Страна-производитель диска (релиза): EU
Год издания: 1999
Издатель (лейбл): Orbit Records GmbH / Virgin
Номер по каталогу: 8 96423 2
Страна исполнителя (группы): Germany
Аудиокодек: FLAC (*.flac)
Тип рипа: image+.cue
Битрейт аудио: lossless
Продолжительность: 00:20:09
Источник (релизер): рип собственного диска
Наличие сканов в содержимом раздачи: да
Треклист:
01. Dark Side Of The Moon (Mark 'Oh Remix) (5:14)
02. Dark Side Of The Moon (Plug 'N' Play Remix) (8:06)
03. Dark Side Of The Moon (DV Remix) (6:48)
Лог создания рипа
Exact Audio Copy V1.0 beta 3 from 29. August 2011
EAC extraction logfile from 3. June 2015, 19:41
Dune / Dark Side Of The Moon (Remixes)
Used drive : PIONEER BD-RW BDR-207D Adapter: 1 ID: 0
Read mode : SecureUtilize accurate stream : YesDefeat audio cache : YesMake use of C2 pointers : No
Read offset correction : 667Overread into Lead-In and Lead-Out : NoFill up missing offset samples with silence : YesDelete leading and trailing silent blocks : NoNull samples used in CRC calculations : YesUsed interface : Native Win32 interface for Win NT & 2000
Used output format : User Defined EncoderSelected bitrate : 128 kBit/sQuality : HighAdd ID3 tag : NoCommand line compressor : C:\Program Files (x86)\Exact Audio Copy\Flac\flac.exeAdditional command line options : -V -8 -T "Date=%year%" -T "Genre=%genre%" %source%
TOC of the extracted CD
Track | Start | Length | Start sector | End sector --------------------------------------------------------- 1 | 0:00.00 | 5:14.08 | 0 | 23557 2 | 5:14.08 | 8:06.21 | 23558 | 60028 3 | 13:20.29 | 6:48.16 | 60029 | 90644
Range status and errors
Selected range
Filename D:\Dune Discography\singles\1999 - Dark Side Of The Moon (Remixes) (8 96423 2)\Dune - Dark Side Of The Moon (Remixes) (8 96423 2) (1999).wav
Peak level 98.8 % Extraction speed 3.6 X Range quality 100.0 % Test CRC EDCE48F4 Copy CRC EDCE48F4 Copy OK
No errors occurred
AccurateRip summary
Track 1 accurately ripped (confidence 1) [9D025F27] (AR v1)Track 2 accurately ripped (confidence 1) [4AD1714A] (AR v1)Track 3 accurately ripped (confidence 1) [A22A5CDC] (AR v1)
All tracks accurately ripped
End of status report
==== Log checksum 738E04D77C845CBB9532DCE467F68C0B512D0625ECD7D6099BC41C97393D3925 ====

2000 - Hardcore Vibes - Dune vs Trubblemaker

Жанр: Electro / Breakbeat / Trance / House
Носитель: CD
Страна-производитель диска (релиза): EU
Год издания: 2000
Издатель (лейбл): Orbit Records GmbH / Virgin
Номер по каталогу: 8 97098 2
Страна исполнителя (группы): Germany
Аудиокодек: FLAC (*.flac)
Тип рипа: image+.cue
Битрейт аудио: lossless
Продолжительность: 00:21:31
Источник (релизер): рип собственного диска
Наличие сканов в содержимом раздачи: да
Треклист:
01. Hardcore Vibes (Radio Edit) (3:19)
02. Hardcore Vibes (Original Mix) (5:44)
03. Hardcore Vibes (Chopstick Club Mix) (6:34)
04. Hardcore Vibes (DNS Club Mix) (5:52)
Лог создания рипа
Exact Audio Copy V1.0 beta 3 from 29. August 2011
EAC extraction logfile from 25. May 2015, 22:46
Dune vs Trubblemaker / Hardcore Vibes
Used drive : PIONEER BD-RW BDR-207D Adapter: 1 ID: 0
Read mode : SecureUtilize accurate stream : YesDefeat audio cache : YesMake use of C2 pointers : No
Read offset correction : 667Overread into Lead-In and Lead-Out : NoFill up missing offset samples with silence : YesDelete leading and trailing silent blocks : NoNull samples used in CRC calculations : YesUsed interface : Native Win32 interface for Win NT & 2000
Used output format : User Defined EncoderSelected bitrate : 128 kBit/sQuality : HighAdd ID3 tag : NoCommand line compressor : C:\Program Files (x86)\Exact Audio Copy\Flac\flac.exeAdditional command line options : -V -8 -T "Date=%year%" -T "Genre=%genre%" %source%
TOC of the extracted CD
Track | Start | Length | Start sector | End sector --------------------------------------------------------- 1 | 0:00.00 | 3:19.12 | 0 | 14936 2 | 3:19.12 | 5:44.60 | 14937 | 40796 3 | 9:03.72 | 6:34.45 | 40797 | 70391 4 | 15:38.42 | 5:52.35 | 70392 | 96826
Range status and errors
Selected range
Filename D:\Dune Discography\singles\2000 - Hardcore Vibes - Dune vs Trubblemaker (8 97098 2)\Dune vs Trubblemaker - Hardcore Vibes (8 97098 2) (2000).wav
Peak level 100.0 % Extraction speed 2.2 X Range quality 100.0 % Test CRC 7B7D4B4B Copy CRC 7B7D4B4B Copy OK
No errors occurred
AccurateRip summary
Track 1 accurately ripped (confidence 3) [8514FE80] (AR v2)Track 2 accurately ripped (confidence 3) [446BD93C] (AR v2)Track 3 accurately ripped (confidence 3) [D31F5866] (AR v2)Track 4 accurately ripped (confidence 3) [5BADDC66] (AR v2)
All tracks accurately ripped
End of status report
==== Log checksum 59E56F2EFFDDE1927E1044D2B9BAB61EC7AD65B46F36F86E6FD7138634B1384F ====

2003 - Rainbow To The Stars 2003

Жанр: Trance
Носитель: CD
Страна-производитель диска (релиза): EU
Год издания: 2003
Издатель (лейбл): Home Records GmbH / Sony Music Entertainment (Germany) GmbH & Co. KG
Номер по каталогу: 6738582000
Страна исполнителя (группы): Germany
Аудиокодек: FLAC (*.flac)
Тип рипа: image+.cue
Битрейт аудио: lossless
Продолжительность: 00:26:12
Источник (релизер): рип собственного диска
Наличие сканов в содержимом раздачи: да
Треклист:
01. Rainbow To The Stars 2003 (Videomix) (3:32)
02. Rainbow To The Stars 2003 (DJ Cosmo Remix) (8:53)
03. Rainbow To The Stars 2003 (12 Inch Mix) (6:02)
04. Rainbow To The Stars 2003 (DJ Janis Remix) (7:44)
Лог создания рипа
Exact Audio Copy V1.0 beta 3 from 29. August 2011
EAC extraction logfile from 26. May 2015, 0:25
Dune / Rainbow To The Stars 2003
Used drive : PIONEER BD-RW BDR-207D Adapter: 1 ID: 0
Read mode : SecureUtilize accurate stream : YesDefeat audio cache : YesMake use of C2 pointers : No
Read offset correction : 667Overread into Lead-In and Lead-Out : NoFill up missing offset samples with silence : YesDelete leading and trailing silent blocks : NoNull samples used in CRC calculations : YesUsed interface : Native Win32 interface for Win NT & 2000
Used output format : User Defined EncoderSelected bitrate : 128 kBit/sQuality : HighAdd ID3 tag : NoCommand line compressor : C:\Program Files (x86)\Exact Audio Copy\Flac\flac.exeAdditional command line options : -V -8 -T "Date=%year%" -T "Genre=%genre%" %source%
TOC of the extracted CD
Track | Start | Length | Start sector | End sector --------------------------------------------------------- 1 | 0:00.00 | 3:32.54 | 0 | 15953 2 | 3:32.54 | 8:53.62 | 15954 | 55990 3 | 12:26.41 | 6:02.08 | 55991 | 83148 4 | 18:28.49 | 7:43.54 | 83149 | 117927
Range status and errors
Selected range
Filename D:\Dune Discography\singles\2003 - Rainbow To The Stars 2003 (6738582000)\Dune - Rainbow To The Stars 2003 (6738582000) (2003).wav
Peak level 97.7 % Extraction speed 5.9 X Range quality 99.9 % Test CRC 0072590C Copy CRC 0072590C Copy OK
No errors occurred
AccurateRip summary
Track 1 accurately ripped (confidence 1) [7E4C3E2D] (AR v1)Track 2 accurately ripped (confidence 1) [F9145465] (AR v1)Track 3 accurately ripped (confidence 1) [32154986] (AR v1)Track 4 accurately ripped (confidence 1) [38685CA7] (AR v1)
All tracks accurately ripped
End of status report
==== Log checksum 8E0780D82742364EE18B37AEA3595534CE318AA1EA466C04DDAAFE0BBA6F0942 ====

_________________
Показать сообщения:    

Текущее время: Сегодня 09:48

Часовой пояс: GMT



Вы не можете начинать темы
Вы не можете отвечать на сообщения
Вы не можете редактировать свои сообщения
Вы не можете удалять свои сообщения
Вы не можете голосовать в опросах
Вы не можете прикреплять файлы к сообщениям
Вы не можете скачивать файлы