Ивановский Торрент трекер
Яндекс.Погода
 

[Цитировать]
HUNTER

Ultra-Sonic / The Best Of
Жанр: Happy Hardcore, Techno
Год издания: 2003
Издатель (лейбл): Rumour Records
Номер по каталогу: CDRAID 557
Аудиокодек: FLAC (*.flac)
Тип рипа: tracks+.cue
Битрейт аудио: lossless
Продолжительность: 02:23:51
Источник (релизер): RaveGenerator
Наличие сканов в содержимом раздачи: нет
Треклист:
CD 1:
01. Ultra-Sonic - Obsession (12'') [07:15]
02. Ultra-Sonic - The Pulse (12'') [06:32]
03. Ultra-Sonic - Arpeggio (12'') [07:20]
04. Ultra-Sonic - Annihilating Rhythm Parts 1 & 2 [07:12]
05. Ultra-Sonic - Check Your Head [03:32]
06. Ultra-Sonic - Love Me Right [04:55]
07. Ultra-Sonic - 1,2,3,4 (12'') [05:44]
08. Ultra-Sonic - Tic-Tok (12'') [05:54]
09. Ultra-Sonic - Make That Move (12'') [06:12]
10. Ultra-Sonic - Party Non-Stop (12'') [05:20]
11. Ultra-Sonic - Do You Believe In Love7 [06:35]
12. Ultra-Sonic - I Just Can't Stop! [04:11]
CD 2:
01. Ultra-Sonic - Alpha II Omega [02:12]
02. Ultra-Sonic - We Want One More [04:03]
03. Ultra-Sonic - Check Your Head [03:50]
04. Ultra-Sonic - Hey Mr. DJ [04:06]
05. Ultra-Sonic - Party Non-Stop [05:34]
06. Ultra-Sonic - Make That Move [04:32]
07. Ultra-Sonic - Annihilating Rhythm Parts 1 & 2 [05:25]
08. Ultra-Sonic - Do You Believe In Love7 [05:11]
09. Ultra-Sonic - 1,2,3,4 [06:55]
10. Ultra-Sonic - Let The Bass Drum Go [06:30]
11. Ultra-Sonic - Bust That Groove [03:42]
12. Ultra-Sonic - Give Me What You Got (12'') [07:43]
13. Ultra-Sonic - I Want Your Love (12'') [06:59]
14. Ultra-Sonic - Take Me Away (12'') [06:13]

logs and sheets

Log CD 1

Exact Audio Copy V1.0 beta 3 from 29. August 2011
EAC extraction logfile from 9. December 2012, 14:03
Ultra-Sonic / The Best Of
Used drive : Optiarc DVD RW AD-7260S Adapter: 2 ID: 1
Read mode : SecureUtilize accurate stream : YesDefeat audio cache : YesMake use of C2 pointers : No
Read offset correction : 48Overread into Lead-In and Lead-Out : NoFill up missing offset samples with silence : YesDelete leading and trailing silent blocks : NoNull samples used in CRC calculations : YesUsed interface : Native Win32 interface for Win NT & 2000Gap handling : Appended to previous track
Used output format : User Defined EncoderSelected bitrate : 768 kBit/sQuality : HighAdd ID3 tag : YesCommand line compressor : E:\Program Files\Exact Audio Copy\Flac\flac.exeAdditional command line options : -8 -V -T "ARTIST=%artist%" -T "TITLE=%title%" -T "ALBUM=%albumtitle%" -T "DATE=%year%" -T "TRACKNUMBER=%tracknr%" -T "GENRE=%genre%" -T "COMMENT=ripped by RaveGenerator" %source%
TOC of the extracted CD
Track | Start | Length | Start sector | End sector --------------------------------------------------------- 1 | 0:00.00 | 7:15.20 | 0 | 32644 2 | 7:15.20 | 6:32.30 | 32645 | 62074 3 | 13:47.50 | 7:20.72 | 62075 | 95146 4 | 21:08.47 | 7:12.37 | 95147 | 127583 5 | 28:21.09 | 3:32.55 | 127584 | 143538 6 | 31:53.64 | 4:55.08 | 143539 | 165671 7 | 36:48.72 | 5:44.46 | 165672 | 191517 8 | 42:33.43 | 5:54.24 | 191518 | 218091 9 | 48:27.67 | 6:12.74 | 218092 | 246065 10 | 54:40.66 | 5:20.66 | 246066 | 270131 11 | 60:01.57 | 6:35.37 | 270132 | 299793 12 | 66:37.19 | 4:11.40 | 299794 | 318658
Track 1
Filename R:\musik2\01. Ultra-Sonic - Obsession (12'').wav
Pre-gap length 0:00:02.00
Peak level 98.8 % Extraction speed 2.5 X Track quality 99.9 % Test CRC 57A55FB5 Copy CRC 57A55FB5 Accurately ripped (confidence 2) [0887FA5D] (AR v1) Copy OK
Track 2
Filename R:\musik2\02. Ultra-Sonic - The Pulse (12'').wav
Pre-gap length 0:00:01.65
Peak level 98.8 % Extraction speed 2.8 X Track quality 99.9 % Test CRC B4BD094D Copy CRC B4BD094D Accurately ripped (confidence 2) [43161F8C] (AR v1) Copy OK
Track 3
Filename R:\musik2\03. Ultra-Sonic - Arpeggio (12'').wav
Pre-gap length 0:00:01.74
Peak level 98.8 % Extraction speed 3.5 X Track quality 100.0 % Test CRC A6E7AB91 Copy CRC A6E7AB91 Accurately ripped (confidence 2) [0186A136] (AR v1) Copy OK
Track 4
Filename R:\musik2\04. Ultra-Sonic - Annihilating Rhythm Parts 1 & 2.wav
Pre-gap length 0:00:01.71
Peak level 98.8 % Extraction speed 3.8 X Track quality 100.0 % Test CRC 399403B2 Copy CRC 399403B2 Accurately ripped (confidence 2) [33C11DE1] (AR v1) Copy OK
Track 5
Filename R:\musik2\05. Ultra-Sonic - Check Your Head.wav
Pre-gap length 0:00:01.62
Peak level 98.8 % Extraction speed 3.8 X Track quality 100.0 % Test CRC F80728CC Copy CRC F80728CC Accurately ripped (confidence 2) [93226346] (AR v1) Copy OK
Track 6
Filename R:\musik2\06. Ultra-Sonic - Love Me Right.wav
Pre-gap length 0:00:02.00
Peak level 98.9 % Extraction speed 3.7 X Track quality 99.9 % Test CRC 265DB955 Copy CRC 265DB955 Accurately ripped (confidence 2) [2DCAA393] (AR v1) Copy OK
Track 7
Filename R:\musik2\07. Ultra-Sonic - 1,2,3,4 (12'').wav
Pre-gap length 0:00:01.72
Peak level 98.9 % Extraction speed 4.0 X Track quality 99.9 % Test CRC EEDD1335 Copy CRC EEDD1335 Accurately ripped (confidence 2) [44414F8F] (AR v1) Copy OK
Track 8
Filename R:\musik2\08. Ultra-Sonic - Tic-Tok (12'').wav
Pre-gap length 0:00:01.68
Peak level 98.8 % Extraction speed 4.6 X Track quality 100.0 % Test CRC 270D9E5E Copy CRC 270D9E5E Accurately ripped (confidence 2) [FBAABD85] (AR v1) Copy OK
Track 9
Filename R:\musik2\09. Ultra-Sonic - Make That Move (12'').wav
Pre-gap length 0:00:01.69
Peak level 98.8 % Extraction speed 4.9 X Track quality 100.0 % Test CRC 7AA47C05 Copy CRC 7AA47C05 Accurately ripped (confidence 2) [B7CD5AC8] (AR v1) Copy OK
Track 10
Filename R:\musik2\10. Ultra-Sonic - Party Non-Stop (12'').wav
Pre-gap length 0:00:01.71
Peak level 98.8 % Extraction speed 5.0 X Track quality 100.0 % Test CRC 07CE468D Copy CRC 07CE468D Accurately ripped (confidence 2) [4358CE30] (AR v1) Copy OK
Track 11
Filename R:\musik2\11. Ultra-Sonic - Do You Believe In Love7.wav
Pre-gap length 0:00:01.71
Peak level 98.8 % Extraction speed 5.3 X Track quality 100.0 % Test CRC C0D28DCF Copy CRC C0D28DCF Accurately ripped (confidence 2) [011CC70E] (AR v1) Copy OK
Track 12
Filename R:\musik2\12. Ultra-Sonic - I Just Can't Stop!.wav
Pre-gap length 0:00:01.68
Peak level 98.8 % Extraction speed 5.2 X Track quality 100.0 % Test CRC 264CD6A5 Copy CRC 264CD6A5 Track not present in AccurateRip database Copy OK
11 track(s) accurately ripped 1 track(s) not present in the AccurateRip database
Some tracks could not be verified as accurate
No errors occurred
End of status report
---- CUETools DB Plugin V2.1.3
[CTDB TOCID: Gmd7IBhTdV67gguabhkcgWP5iLY-] disk not present in database, Submit result: Gmd7IBhTdV67gguabhkcgWP5iLY- has been uploaded
==== Log checksum 5A3C4904C48BE96B4AE9EB4DEAE52B22CA04E6F760FBCA90205656B500C45DAF ====

cue CD 1

REM GENRE "Happy Hardcore"REM DATE 2003REM DISCID AB10980CREM COMMENT "ExactAudioCopy v1.0b3"PERFORMER "Ultra-Sonic"TITLE "The Best Of"FILE "01. Ultra-Sonic - Obsession (12'').wav" WAVE TRACK 01 AUDIO TITLE "Obsession (12'')" PERFORMER "Ultra-Sonic" INDEX 01 00:00:00 TRACK 02 AUDIO TITLE "The Pulse (12'')" PERFORMER "Ultra-Sonic" INDEX 00 07:13:30FILE "02. Ultra-Sonic - The Pulse (12'').wav" WAVE INDEX 01 00:00:00 TRACK 03 AUDIO TITLE "Arpeggio (12'')" PERFORMER "Ultra-Sonic" INDEX 00 06:30:31FILE "03. Ultra-Sonic - Arpeggio (12'').wav" WAVE INDEX 01 00:00:00 TRACK 04 AUDIO TITLE " Annihilating Rhythm Parts 1 & 2" PERFORMER "Ultra-Sonic" INDEX 00 07:19:01FILE "04. Ultra-Sonic - Annihilating Rhythm Parts 1 & 2.wav" WAVE INDEX 01 00:00:00 TRACK 05 AUDIO TITLE "Check Your Head" PERFORMER "Ultra-Sonic" INDEX 00 07:10:50FILE "05. Ultra-Sonic - Check Your Head.wav" WAVE INDEX 01 00:00:00 TRACK 06 AUDIO TITLE "Love Me Right" PERFORMER "Ultra-Sonic" INDEX 00 03:30:55FILE "06. Ultra-Sonic - Love Me Right.wav" WAVE INDEX 01 00:00:00 TRACK 07 AUDIO TITLE "1,2,3,4 (12'')" PERFORMER "Ultra-Sonic" INDEX 00 04:53:11FILE "07. Ultra-Sonic - 1,2,3,4 (12'').wav" WAVE INDEX 01 00:00:00 TRACK 08 AUDIO TITLE "Tic-Tok (12'')" PERFORMER "Ultra-Sonic" INDEX 00 05:42:53FILE "08. Ultra-Sonic - Tic-Tok (12'').wav" WAVE INDEX 01 00:00:00 TRACK 09 AUDIO TITLE "Make That Move (12'')" PERFORMER "Ultra-Sonic" INDEX 00 05:52:30FILE "09. Ultra-Sonic - Make That Move (12'').wav" WAVE INDEX 01 00:00:00 TRACK 10 AUDIO TITLE "Party Non-Stop (12'')" PERFORMER "Ultra-Sonic" INDEX 00 06:11:03FILE "10. Ultra-Sonic - Party Non-Stop (12'').wav" WAVE INDEX 01 00:00:00 TRACK 11 AUDIO TITLE "Do You Believe In Love7" PERFORMER "Ultra-Sonic" INDEX 00 05:18:70FILE "11. Ultra-Sonic - Do You Believe In Love7.wav" WAVE INDEX 01 00:00:00 TRACK 12 AUDIO TITLE "I Just Can't Stop!" PERFORMER "Ultra-Sonic" INDEX 00 06:33:44FILE "12. Ultra-Sonic - I Just Can't Stop!.wav" WAVE INDEX 01 00:00:00

Log CD 2

Exact Audio Copy V1.0 beta 3 from 29. August 2011
EAC extraction logfile from 9. December 2012, 14:51
Ultra-Sonic / The Best Of CD2
Used drive : Optiarc DVD RW AD-7260S Adapter: 2 ID: 1
Read mode : SecureUtilize accurate stream : YesDefeat audio cache : YesMake use of C2 pointers : No
Read offset correction : 48Overread into Lead-In and Lead-Out : NoFill up missing offset samples with silence : YesDelete leading and trailing silent blocks : NoNull samples used in CRC calculations : YesUsed interface : Native Win32 interface for Win NT & 2000Gap handling : Appended to previous track
Used output format : User Defined EncoderSelected bitrate : 768 kBit/sQuality : HighAdd ID3 tag : YesCommand line compressor : E:\Program Files\Exact Audio Copy\Flac\flac.exeAdditional command line options : -8 -V -T "ARTIST=%artist%" -T "TITLE=%title%" -T "ALBUM=%albumtitle%" -T "DATE=%year%" -T "TRACKNUMBER=%tracknr%" -T "GENRE=%genre%" -T "COMMENT=ripped by RaveGenerator" %source%
TOC of the extracted CD
Track | Start | Length | Start sector | End sector --------------------------------------------------------- 1 | 0:00.00 | 2:12.18 | 0 | 9917 2 | 2:12.18 | 4:03.50 | 9918 | 28192 3 | 6:15.68 | 3:50.42 | 28193 | 45484 4 | 10:06.35 | 4:06.38 | 45485 | 63972 5 | 14:12.73 | 5:34.22 | 63973 | 89044 6 | 19:47.20 | 4:32.70 | 89045 | 109514 7 | 24:20.15 | 5:25.45 | 109515 | 133934 8 | 29:45.60 | 5:11.58 | 133935 | 157317 9 | 34:57.43 | 6:55.15 | 157318 | 188457 10 | 41:52.58 | 6:30.56 | 188458 | 217763 11 | 48:23.39 | 3:42.62 | 217764 | 234475 12 | 52:06.26 | 7:43.44 | 234476 | 269244 13 | 59:49.70 | 6:59.45 | 269245 | 300714 14 | 66:49.40 | 6:13.35 | 300715 | 328724
Track 1
Filename R:\musik2\01. Ultra-Sonic - Alpha II Omega.wav
Pre-gap length 0:00:02.00
Peak level 98.8 % Extraction speed 2.2 X Track quality 100.0 % Test CRC 6DD213E2 Copy CRC 6DD213E2 Accurately ripped (confidence 1) [71979F42] (AR v1) Copy OK
Track 2
Filename R:\musik2\02. Ultra-Sonic - We Want One More.wav
Peak level 98.8 % Extraction speed 2.3 X Track quality 99.9 % Test CRC 3A6DB793 Copy CRC 3A6DB793 Accurately ripped (confidence 1) [40DADE66] (AR v1) Copy OK
Track 3
Filename R:\musik2\03. Ultra-Sonic - Check Your Head.wav
Peak level 98.9 % Extraction speed 2.8 X Track quality 100.0 % Test CRC D6FC3301 Copy CRC D6FC3301 Accurately ripped (confidence 1) [19B1ACD9] (AR v1) Copy OK
Track 4
Filename R:\musik2\04. Ultra-Sonic - Hey Mr. DJ.wav
Peak level 98.8 % Extraction speed 3.0 X Track quality 100.0 % Test CRC DC6B06F1 Copy CRC DC6B06F1 Accurately ripped (confidence 1) [40AA252F] (AR v1) Copy OK
Track 5
Filename R:\musik2\05. Ultra-Sonic - Party Non-Stop.wav
Peak level 98.9 % Extraction speed 3.1 X Track quality 99.9 % Test CRC DF71A7DA Copy CRC DF71A7DA Accurately ripped (confidence 1) [DFB0F474] (AR v1) Copy OK
Track 6
Filename R:\musik2\06. Ultra-Sonic - Make That Move.wav
Peak level 98.8 % Extraction speed 3.6 X Track quality 100.0 % Test CRC 08EFE927 Copy CRC 08EFE927 Accurately ripped (confidence 1) [2C5C42A4] (AR v1) Copy OK
Track 7
Filename R:\musik2\07. Ultra-Sonic - Annihilating Rhythm Parts 1 & 2.wav
Peak level 98.8 % Extraction speed 3.9 X Track quality 100.0 % Test CRC 043EC827 Copy CRC 043EC827 Accurately ripped (confidence 1) [29281C77] (AR v1) Copy OK
Track 8
Filename R:\musik2\08. Ultra-Sonic - Do You Believe In Love7.wav
Peak level 98.8 % Extraction speed 3.7 X Track quality 99.9 % Test CRC 64725A6A Copy CRC 64725A6A Accurately ripped (confidence 1) [FDB05003] (AR v1) Copy OK
Track 9
Filename R:\musik2\09. Ultra-Sonic - 1,2,3,4.wav
Peak level 98.8 % Extraction speed 4.4 X Track quality 100.0 % Test CRC 88688A04 Copy CRC 88688A04 Accurately ripped (confidence 1) [A309C78F] (AR v1) Copy OK
Track 10
Filename R:\musik2\10. Ultra-Sonic - Let The Bass Drum Go.wav
Peak level 98.8 % Extraction speed 4.3 X Track quality 99.9 % Test CRC 29CB9832 Copy CRC 29CB9832 Accurately ripped (confidence 1) [6142083D] (AR v1) Copy OK
Track 11
Filename R:\musik2\11. Ultra-Sonic - Bust That Groove.wav
Pre-gap length 0:00:01.65
Peak level 98.8 % Extraction speed 4.6 X Track quality 100.0 % Test CRC 8F875B5B Copy CRC 8F875B5B Accurately ripped (confidence 1) [AA8D9A56] (AR v1) Copy OK
Track 12
Filename R:\musik2\12. Ultra-Sonic - Give Me What You Got (12'').wav
Pre-gap length 0:00:01.60
Peak level 98.8 % Extraction speed 5.2 X Track quality 100.0 % Test CRC 3F4E7FB4 Copy CRC 3F4E7FB4 Accurately ripped (confidence 1) [F835E043] (AR v1) Copy OK
Track 13
Filename R:\musik2\13. Ultra-Sonic - I Want Your Love (12'').wav
Pre-gap length 0:00:01.64
Peak level 98.9 % Extraction speed 4.9 X Track quality 99.9 % Test CRC F6CCBE5F Copy CRC F6CCBE5F Accurately ripped (confidence 1) [6F87054C] (AR v1) Copy OK
Track 14
Filename R:\musik2\14. Ultra-Sonic - Take Me Away (12'').wav
Pre-gap length 0:00:01.63
Peak level 98.8 % Extraction speed 5.1 X Track quality 99.9 % Test CRC 4280EB88 Copy CRC 4280EB88 Cannot be verified as accurate (confidence 1) [4ED1C164], AccurateRip returned [14DAC1F0] (AR v2) Copy OK
13 track(s) accurately ripped 1 track(s) could not be verified as accurate
Some tracks could not be verified as accurate
No errors occurred
End of status report
---- CUETools DB Plugin V2.1.3
[CTDB TOCID: abYsU_5s1tbnOsltpm5nYHNCU28-] disk not present in database, Submit result: abYsU_5s1tbnOsltpm5nYHNCU28- has been uploaded
==== Log checksum 6B70DFAED44CD5F2135DBAD28B90C043AF2942D4B9AAE99527312D73C9C85C0C ====

cue CD 2

REM GENRE "Happy Hardcore"REM DATE 2003REM DISCID C7111F0EREM COMMENT "ExactAudioCopy v1.0b3"PERFORMER "Ultra-Sonic"TITLE "The Best Of CD2"FILE "01. Ultra-Sonic - Alpha II Omega.wav" WAVE TRACK 01 AUDIO TITLE " Alpha II Omega" PERFORMER "Ultra-Sonic" INDEX 01 00:00:00FILE "02. Ultra-Sonic - We Want One More.wav" WAVE TRACK 02 AUDIO TITLE "We Want One More" PERFORMER "Ultra-Sonic" INDEX 01 00:00:00FILE "03. Ultra-Sonic - Check Your Head.wav" WAVE TRACK 03 AUDIO TITLE "Check Your Head" PERFORMER "Ultra-Sonic" INDEX 01 00:00:00FILE "04. Ultra-Sonic - Hey Mr. DJ.wav" WAVE TRACK 04 AUDIO TITLE "Hey Mr. DJ" PERFORMER "Ultra-Sonic" INDEX 01 00:00:00FILE "05. Ultra-Sonic - Party Non-Stop.wav" WAVE TRACK 05 AUDIO TITLE "Party Non-Stop" PERFORMER "Ultra-Sonic" INDEX 01 00:00:00FILE "06. Ultra-Sonic - Make That Move.wav" WAVE TRACK 06 AUDIO TITLE "Make That Move" PERFORMER "Ultra-Sonic" INDEX 01 00:00:00FILE "07. Ultra-Sonic - Annihilating Rhythm Parts 1 & 2.wav" WAVE TRACK 07 AUDIO TITLE "Annihilating Rhythm Parts 1 & 2" PERFORMER "Ultra-Sonic" INDEX 01 00:00:00FILE "08. Ultra-Sonic - Do You Believe In Love7.wav" WAVE TRACK 08 AUDIO TITLE "Do You Believe In Love7" PERFORMER "Ultra-Sonic" INDEX 01 00:00:00FILE "09. Ultra-Sonic - 1,2,3,4.wav" WAVE TRACK 09 AUDIO TITLE "1,2,3,4" PERFORMER "Ultra-Sonic" INDEX 01 00:00:00FILE "10. Ultra-Sonic - Let The Bass Drum Go.wav" WAVE TRACK 10 AUDIO TITLE "Let The Bass Drum Go" PERFORMER "Ultra-Sonic" INDEX 01 00:00:00 TRACK 11 AUDIO TITLE "Bust That Groove" PERFORMER "Ultra-Sonic" INDEX 00 06:28:66FILE "11. Ultra-Sonic - Bust That Groove.wav" WAVE INDEX 01 00:00:00 TRACK 12 AUDIO TITLE "Give Me What You Got (12'')" PERFORMER "Ultra-Sonic" INDEX 00 03:41:02FILE "12. Ultra-Sonic - Give Me What You Got (12'').wav" WAVE INDEX 01 00:00:00 TRACK 13 AUDIO TITLE "I Want Your Love (12'')" PERFORMER "Ultra-Sonic" INDEX 00 07:41:55FILE "13. Ultra-Sonic - I Want Your Love (12'').wav" WAVE INDEX 01 00:00:00 TRACK 14 AUDIO TITLE "Take Me Away (12'')" PERFORMER "Ultra-Sonic" INDEX 00 06:57:57FILE "14. Ultra-Sonic - Take Me Away (12'').wav" WAVE INDEX 01 00:00:00



Показать сообщения:    

Текущее время: 17-Дек 18:00

Часовой пояс: UTC ± 0


Вы не можете начинать темы
Вы не можете отвечать на сообщения
Вы не можете редактировать свои сообщения
Вы не можете удалять свои сообщения
Вы не можете голосовать в опросах
Вы не можете прикреплять файлы к сообщениям
Вы не можете скачивать файлы

!ВНИМАНИЕ!
Сайт не предоставляет электронные версии произведений, а занимается лишь коллекционированием и каталогизацией ссылок, присылаемых и публикуемых на форуме нашими читателями. Если вы являетесь правообладателем какого-либо представленного материала и не желаете, чтобы ссылка на него находилась в нашем каталоге, свяжитесь с нами, и мы незамедлительно удалим ее. Файлы для обмена на трекере предоставлены пользователями сайта, и администрация не несет ответственности за их содержание. Просьба не заливать файлы, защищенные авторскими правами, а также файлы нелегального содержания!