(Happy Hardcore) Rubberhead & DJ Clean - Final Fantasy (Maxi-Single) ZYX 7503-8 - 1994, FLAC (tracks+.cue), lossless :: Ивановский Торрент трекер
Важное объявление!
У Нас Все раздачи мультитрекерные, при нуле пиров в релизах, можете смело вставать на закачку!
Статистика раздачи
Размер:     |    Зарегистрирован:     |    Скачан:     |   
Нет
 
     
 
 
Автор Сообщение

HUNTER

Стаж:
4 года 11 месяцев
Сообщений:
66098

Репутация: 101

[+] [-]
Вне форума [Профиль] [ЛС]

Rubberhead & DJ Clean / Final Fantasy (Maxi-Single)
Жанр: Happy Hardcore
Страна-производитель диска: Germany
Год издания: 1994
Издатель (лейбл): ZYX Music
Номер по каталогу: ZYX 7503-8
Страна: Germany
Аудиокодек: FLAC (*.flac)
Тип рипа: tracks+.cue
Битрейт аудио: lossless
Продолжительность: 14:58
Источник (релизер): Собственный рип
Наличие сканов в содержимом раздачи: да
Треклист:
01 - Final Fantasy (Maxi)
02 - Final Festival
03 - Final Fantasy (Radio)

Лог создания рипа

Exact Audio Copy V1.0 beta 3 from 29. August 2011
EAC extraction logfile from 14. May 2012, 15:53
Rubberhead & DJ Clean / Final Fantasy
Used drive : ATAPI iHAS124 B Adapter: 1 ID: 4
Read mode : SecureUtilize accurate stream : YesDefeat audio cache : YesMake use of C2 pointers : No
Read offset correction : 6Overread into Lead-In and Lead-Out : NoFill up missing offset samples with silence : YesDelete leading and trailing silent blocks : NoNull samples used in CRC calculations : YesUsed interface : Native Win32 interface for Win NT & 2000Gap handling : Appended to previous track
Used output format : User Defined EncoderSelected bitrate : 896 kBit/sQuality : HighAdd ID3 tag : NoCommand line compressor : C:\Program Files (x86)\FLAC\flac.exeAdditional command line options : -5 --delete-input-file -V -T Title="%title%" -T Artist="%artist%" -T Date="%year%" -T Tracknumber="%tracknr%" -T Album="%albumtitle%" %source%
TOC of the extracted CD
Track | Start | Length | Start sector | End sector --------------------------------------------------------- 1 | 0:00.00 | 5:45.20 | 0 | 25894 2 | 5:45.20 | 5:47.35 | 25895 | 51954 3 | 11:32.55 | 3:26.45 | 51955 | 67449
Track 1
Filename T:\Rubberhead & DJ Clean - Final Fantasy (ZYX 7503-8) [1994]\01 - Final Fantasy (Maxi).wav
Pre-gap length 0:00:02.00
Peak level 82.1 % Extraction speed 4.8 X Track quality 99.9 % Test CRC B72B4F40 Copy CRC B72B4F40 Track not present in AccurateRip database Copy OK
Track 2
Filename T:\Rubberhead & DJ Clean - Final Fantasy (ZYX 7503-8) [1994]\02 - Final Festival.wav
Peak level 84.0 % Extraction speed 5.6 X Track quality 99.9 % Test CRC 4B587D80 Copy CRC 4B587D80 Track not present in AccurateRip database Copy OK
Track 3
Filename T:\Rubberhead & DJ Clean - Final Fantasy (ZYX 7503-8) [1994]\03 - Final Fantasy (Radio).wav
Peak level 84.8 % Extraction speed 5.2 X Track quality 99.9 % Test CRC CB0EE7E7 Copy CRC CB0EE7E7 Track not present in AccurateRip database Copy OK
None of the tracks are present in the AccurateRip database
No errors occurred
End of status report
---- CUETools DB Plugin V2.1.3
[CTDB TOCID: Fy9HkoUfjNquYy4Gzb1LExrkvyo-] disk not present in database, Submit result: Fy9HkoUfjNquYy4Gzb1LExrkvyo- has been uploaded
==== Log checksum 665A65DE2C823B39C2F599B9CBFFFB03C4759CA46E70E25F919D4A89AA9C770B ====

Содержание индексной карты (.CUE)

REM GENRE HardcoreREM DATE 1994REM DISCID 23038303REM COMMENT "ExactAudioCopy v1.0b3"PERFORMER "Rubberhead & DJ Clean"TITLE "Final Fantasy"FILE "01 - Final Fantasy (Maxi).wav" WAVE TRACK 01 AUDIO TITLE "Final Fantasy (Maxi)" PERFORMER "Rubberhead & DJ Clean" INDEX 01 00:00:00FILE "02 - Final Festival.wav" WAVE TRACK 02 AUDIO TITLE "Final Festival" PERFORMER "Rubberhead & DJ Clean" INDEX 01 00:00:00FILE "03 - Final Fantasy (Radio).wav" WAVE TRACK 03 AUDIO TITLE "Final Fantasy (Radio)" PERFORMER "Rubberhead & DJ Clean" INDEX 01 00:00:00

Лог проверки качества

-----------------------
DON'T MODIFY THIS FILE
-----------------------
PERFORMER: auCDtect Task Manager, ver. 1.5.1RC6 build 1.5.1.7Copyright (c) 2008-2010 y-soft. All rights reservedhttp://y-soft.org
ANALYZER: auCDtect: CD records authenticity detector, version 0.8.2Copyright (c) 2004 Oleg Berngardt. All rights reserved.Copyright (c) 2004 Alexander Djourik. All rights reserved.
FILE: 03 - Final Fantasy (Radio).flac Size: 20278752 Hash: F1DCACFFB5967AE8E7F2532AEE30CF86 Accuracy: -m0 Conclusion: CDDA 100% Signature: B3972D43B05BDA321D8D878B0A046F0A3AA974B6FILE: 02 - Final Festival.flac Size: 31441230 Hash: 0F17F083C79488FD8CE1CE07CBF1C842 Accuracy: -m0 Conclusion: CDDA 100% Signature: 19A268A9D596F16F51CF75298C178280239D5EB7FILE: 01 - Final Fantasy (Maxi).flac Size: 32055619 Hash: 2D1DA97AD02BEB990F7BA4B65C0FE950 Accuracy: -m0 Conclusion: CDDA 99% Signature: FFDACA69222083453A1566FDAC1B901E16D030AE

Скриншот спектра частот


_________________
Показать сообщения:    

Текущее время: Сегодня 12:36

Часовой пояс: GMT



Вы не можете начинать темы
Вы не можете отвечать на сообщения
Вы не можете редактировать свои сообщения
Вы не можете удалять свои сообщения
Вы не можете голосовать в опросах
Вы не можете прикреплять файлы к сообщениям
Вы не можете скачивать файлы