Важное объявление!
У Нас Все раздачи мультитрекерные, при нуле пиров в релизах, можете смело вставать на закачку!
 
Автор Сообщение

HUNTER

Стаж:
4 года 4 месяца
Сообщений:
56722

Репутация: 101

[+] [-]
Вне форума [Профиль] [ЛС]

Rubberhead & DJ Clean / Final Fantasy Remix
Жанр: Happy Hardcore
Носитель: CDM
Страна-производитель диска (релиза): Germany
Год издания: 1994
Издатель (лейбл): ZYX Music
Номер по каталогу: ZYX 7503R-8
Аудиокодек: FLAC (*.flac)
Тип рипа: tracks+.cue
Битрейт аудио: lossless
Продолжительность: 19:40
Источник (релизер): Рип с диска из личной коллекции
Наличие сканов в содержимом раздачи: нет
Треклист:
1. Final Fantasy (Special DJ Mix)
2. Final Fantasy (Experimental Mix)
3. Final Fantasy (DJ Toy's Mix)
4. Final Fantasy (Radio Mix)

Лог создания рипа

Exact Audio Copy V1.0 beta 3 from 29. August 2011
Отчёт EAC об извлечении, выполненном 5. февраля 2015, 19:35
Rubberhead & DJ Clean / Final Fantasy Remix (CDM)
Дисковод: TSSTcorpCDDVDW SH-S203D Adapter: 2 ID: 0
Режим чтения : ДостоверностьИспользование точного потока : ДаОтключение кэша аудио : ДаИспользование указателей C2 : Нет
Коррекция смещения при чтении : 6Способность читать области Lead-in и Lead-out : НетЗаполнение пропущенных сэмплов тишиной : ДаУдаление блоков с тишиной в начале и конце : НетПри вычислениях CRC использовались нулевые сэмплы : ДаИнтерфейс : Встроенный Win32-интерфейс для Win NT/2000Обработка зазоров : Добавлено к предыдущему треку
Выходной формат : Пользовательский кодировщикВыбранный битрейт : 1024 kBit/sКачество : ВысокийДобавление ID3-тега : НетУтилита сжатия : C:\Program Files (x86)\Exact Audio Copy\FLAC\FLAC.EXEДополнительные параметры : -6 -V -T "ARTIST=%artist%" -T "TITLE=%title%" -T "ALBUM=%albumtitle%" -T "DATE=%year%" -T "TRACKNUMBER=%tracknr%" -T "GENRE=%genre%" -T "COMMENT=%comment%" -T "BAND=%albuminterpret%" -T "ALBUMARTIST=%albuminterpret%" -T "COMPOSER=%composer%" %haslyrics%--tag-from-file=LYRICS="%lyricsfile%"%haslyrics% -T "DISCNUMBER=%cdnumber%" -T "TOTALDISCS=%totalcds%" -T "TOTALTRACKS=%numtracks%" %hascover%--picture="%coverfile%"%hascover% %source% -o %dest%
TOC извлечённого CD
Трек | Старт | Длительность | Начальный сектор | Конечный сектор --------------------------------------------------------------------- 1 | 0:00.00 | 5:12.00 | 0 | 23399 2 | 5:12.00 | 5:20.35 | 23400 | 47434 3 | 10:32.35 | 5:35.32 | 47435 | 72591 4 | 16:07.67 | 3:30.38 | 72592 | 88379
Трек 1
Имя файла E:\МУЗЫКА\01. Rubberhead & DJ Clean - Final Fantasy (Special DJ Mix).wav
Длина предзазора 0:00:02.00
Пиковый уровень 100.0 % Скорость извлечения 1.8 X Качество трека 100.0 % CRC теста A7A5FFAB CRC копии A7A5FFAB Точное извлечение (достоверность 1) [2EEFC185] (AR v1) Копирование... OK
Трек 2
Имя файла E:\МУЗЫКА\02. Rubberhead & DJ Clean - Final Fantasy (Experimental Mix).wav
Пиковый уровень 84.7 % Скорость извлечения 2.0 X Качество трека 100.0 % CRC теста D750AA5C CRC копии D750AA5C Точное извлечение (достоверность 1) [28562807] (AR v1) Копирование... OK
Трек 3
Имя файла E:\МУЗЫКА\03. Rubberhead & DJ Clean - Final Fantasy (DJ Toy's Mix).wav
Пиковый уровень 62.5 % Скорость извлечения 2.3 X Качество трека 100.0 % CRC теста 4BEC7AA1 CRC копии 4BEC7AA1 Точное извлечение (достоверность 1) [F300163A] (AR v1) Копирование... OK
Трек 4
Имя файла E:\МУЗЫКА\04. Rubberhead & DJ Clean - Final Fantasy (Radio Mix).wav
Пиковый уровень 99.6 % Скорость извлечения 1.9 X Качество трека 99.9 % CRC теста 09936621 CRC копии 09936621 Точное извлечение (достоверность 1) [F1DF1E6B] (AR v1) Копирование... OK
Все треки извлечены точно
Ошибок не произошло
Конец отчёта
==== Контрольная сумма отчёта DFEEF3ED755EBA748E16ED07DC5F9791594223B08F937931B7813F2A4317F6B4 ====

Содержание индексной карты (.CUE)

REM GENRE "Happy Hardcore"REM DATE 1995REM DISCID 2F049A04REM COMMENT "ExactAudioCopy v1.0b3"PERFORMER "Rubberhead & DJ Clean"TITLE "Final Fantasy Remix (CDM)"FILE "01. Rubberhead & DJ Clean - Final Fantasy (Special DJ Mix).wav" WAVE TRACK 01 AUDIO TITLE "Final Fantasy (Special DJ Mix)" PERFORMER "Rubberhead & DJ Clean" INDEX 01 00:00:00FILE "02. Rubberhead & DJ Clean - Final Fantasy (Experimental Mix).wav" WAVE TRACK 02 AUDIO TITLE "Final Fantasy (Experimental Mix)" PERFORMER "Rubberhead & DJ Clean" INDEX 01 00:00:00FILE "03. Rubberhead & DJ Clean - Final Fantasy (DJ Toy's Mix).wav" WAVE TRACK 03 AUDIO TITLE "Final Fantasy (DJ Toy's Mix)" PERFORMER "Rubberhead & DJ Clean" INDEX 01 00:00:00FILE "04. Rubberhead & DJ Clean - Final Fantasy (Radio Mix).wav" WAVE TRACK 04 AUDIO TITLE "Final Fantasy (Radio Mix)" PERFORMER "Rubberhead & DJ Clean" INDEX 01 00:00:00
Доп. информация: http://www.discogs.com/Rubberhead-DJ-Clean-Final-Fa.../release/1425885

_________________
Показать сообщения:    

Текущее время: Сегодня 15:49

Часовой пояс: GMT



Вы не можете начинать темы
Вы не можете отвечать на сообщения
Вы не можете редактировать свои сообщения
Вы не можете удалять свои сообщения
Вы не можете голосовать в опросах
Вы не можете прикреплять файлы к сообщениям
Вы не можете скачивать файлы