Важное объявление!
У Нас Все раздачи мультитрекерные, при нуле пиров в релизах, можете смело вставать на закачку!
 
Автор Сообщение

HUNTER

Стаж:
4 года 4 месяца
Сообщений:
56734

Репутация: 101

[+] [-]
Вне форума [Профиль] [ЛС]

Rave-O-Lution / Falling In Love
Жанр: Happy Hardcore
Носитель: CDM
Страна-производитель диска (релиза): Germany
Год издания: 1995
Издатель (лейбл): Dance Pool
Номер по каталогу: DAN 661336 2
Страна исполнителя (группы): Germany
Аудиокодек: FLAC (*.flac)
Тип рипа: tracks+.cue
Битрейт аудио: lossless
Продолжительность: 15:20
Источник (релизер): Рип с диска из личной коллекции
Наличие сканов в содержимом раздачи: нет
Треклист:
1. Falling In Love (Rave-O-Radio)
2. Falling In Love (Endless Rave Mix)
3. Exotic (CST Mix)

Лог создания рипа

Exact Audio Copy V1.0 beta 3 from 29. August 2011
Отчёт EAC об извлечении, выполненном 10. октября 2015, 12:25
Rave-O-Lution / Falling In Love
Дисковод: TSSTcorpCDDVDW SH-S203D Adapter: 2 ID: 0
Режим чтения : ДостоверностьИспользование точного потока : ДаОтключение кэша аудио : ДаИспользование указателей C2 : Нет
Коррекция смещения при чтении : 6Способность читать области Lead-in и Lead-out : НетЗаполнение пропущенных сэмплов тишиной : ДаУдаление блоков с тишиной в начале и конце : НетПри вычислениях CRC использовались нулевые сэмплы : ДаИнтерфейс : Встроенный Win32-интерфейс для Win NT/2000Обработка зазоров : Добавлено к предыдущему треку
Выходной формат : Пользовательский кодировщикВыбранный битрейт : 1024 kBit/sКачество : ВысокийДобавление ID3-тега : НетУтилита сжатия : C:\Program Files (x86)\Exact Audio Copy\FLAC\FLAC.EXEДополнительные параметры : -6 -V -T "ARTIST=%artist%" -T "TITLE=%title%" -T "ALBUM=%albumtitle%" -T "DATE=%year%" -T "TRACKNUMBER=%tracknr%" -T "GENRE=%genre%" -T "COMMENT=%comment%" -T "BAND=%albuminterpret%" -T "ALBUMARTIST=%albuminterpret%" -T "COMPOSER=%composer%" %haslyrics%--tag-from-file=LYRICS="%lyricsfile%"%haslyrics% -T "DISCNUMBER=%cdnumber%" -T "TOTALDISCS=%totalcds%" -T "TOTALTRACKS=%numtracks%" %hascover%--picture="%coverfile%"%hascover% %source% -o %dest%
TOC извлечённого CD
Трек | Старт | Длительность | Начальный сектор | Конечный сектор --------------------------------------------------------------------- 1 | 0:00.00 | 3:40.25 | 0 | 16524 2 | 3:40.25 | 5:55.50 | 16525 | 43199 3 | 9:36.00 | 5:42.30 | 43200 | 68879
Трек 1
Имя файла E:\МУЗЫКА\01. Falling In Love (Rave-O-Radio).wav
Длина предзазора 0:00:02.00
Пиковый уровень 97.7 % Скорость извлечения 1.7 X Качество трека 100.0 % CRC теста D30DA957 CRC копии D30DA957 Точное извлечение (достоверность 2) [0A39F2DB] (AR v2) Копирование... OK
Трек 2
Имя файла E:\МУЗЫКА\02. Falling In Love (Endless Rave Mix).wav
Длина предзазора 0:00:00.73
Пиковый уровень 97.7 % Скорость извлечения 2.0 X Качество трека 100.0 % CRC теста 04A43951 CRC копии 04A43951 Точное извлечение (достоверность 2) [FE53B28B] (AR v2) Копирование... OK
Трек 3
Имя файла E:\МУЗЫКА\03. Exotic (CST Mix).wav
Длина предзазора 0:00:00.65
Пиковый уровень 97.7 % Скорость извлечения 2.3 X Качество трека 100.0 % CRC теста 90ED7440 CRC копии 90ED7440 Точное извлечение (достоверность 2) [16C69C9A] (AR v2) Копирование... OK
Все треки извлечены точно
Ошибок не произошло
Конец отчёта
==== Контрольная сумма отчёта 13DB61E6FE6EBB8A0BC9DFD0E4084D8647862DC589F34C14901958C486C75FE1 ====

Содержание индексной карты (.CUE)

REM GENRE RaveREM DATE 1995REM DISCID 1C039603REM COMMENT "ExactAudioCopy v1.0b3"PERFORMER "Rave-O-Lution"TITLE "Falling In Love"FILE "01. Falling In Love (Rave-O-Radio).wav" WAVE TRACK 01 AUDIO TITLE "Falling In Love (Rave-O-Radio)" PERFORMER "Rave-O-Lution" INDEX 01 00:00:00 TRACK 02 AUDIO TITLE "Falling In Love (Endless Rave Mix)" PERFORMER "Rave-O-Lution" INDEX 00 03:39:27FILE "02. Falling In Love (Endless Rave Mix).wav" WAVE INDEX 01 00:00:00 TRACK 03 AUDIO TITLE "Exotic (CST Mix)" PERFORMER "Rave-O-Lution" INDEX 00 05:54:60FILE "03. Exotic (CST Mix).wav" WAVE INDEX 01 00:00:00
Доп. информация: http://www.discogs.com/Rave-O-Lution-Falling-In-Love/release/109059

_________________
Показать сообщения:    

Текущее время: Сегодня 12:47

Часовой пояс: GMT



Вы не можете начинать темы
Вы не можете отвечать на сообщения
Вы не можете редактировать свои сообщения
Вы не можете удалять свои сообщения
Вы не можете голосовать в опросах
Вы не можете прикреплять файлы к сообщениям
Вы не можете скачивать файлы