Важное объявление!
У Нас Все раздачи мультитрекерные, при нуле пиров в релизах, можете смело вставать на закачку!
 
Автор Сообщение

HUNTER

Стаж:
4 года 10 месяцев
Сообщений:
65570

Репутация: 101

[+] [-]
Вне форума [Профиль] [ЛС]

Megaherz / Liebeslied
Жанр: Happy Hardcore
Носитель: CDM
Страна-производитель диска (релиза): Germany
Год издания: 1996
Издатель (лейбл): Dance Street
Номер по каталогу: DST 1478-8
Страна исполнителя (группы): Germany
Аудиокодек: FLAC (*.flac)
Тип рипа: tracks+.cue
Битрейт аудио: lossless
Продолжительность: 00:19:35
Источник (релизер): what.cd
Наличие сканов в содержимом раздачи: да
Треклист:
01. Liebeslied (ATB Radio Mix) (3:24)
02. Liebeslied (Original Version) (3:55)
03. Liebeslied (Extended Club Mix) (5:51)
04. Liebeslied (Widey Club Mix) (6:24)

Лог создания рипа

Exact Audio Copy V1.0 beta 1 from 15. November 2010
EAC extraction logfile from 6. February 2011, 21:58
Megaherz / Liebeslied
Used drive : ASUS DRW-1814BLT Adapter: 0 ID: 3
Read mode : SecureUtilize accurate stream : YesDefeat audio cache : YesMake use of C2 pointers : No
Read offset correction : 6Overread into Lead-In and Lead-Out : NoFill up missing offset samples with silence : YesDelete leading and trailing silent blocks : NoNull samples used in CRC calculations : YesUsed interface : Native Win32 interface for Win NT & 2000Gap handling : Appended to previous track
Used output format : User Defined EncoderSelected bitrate : 1024 kBit/sQuality : HighAdd ID3 tag : NoCommand line compressor : C:\Program Files\Exact Audio Copy\FLAC\FLAC.EXEAdditional command line options : -6 -V -T "ARTIST=%a" -T "TITLE=%t" -T "ALBUM=%g" -T "DATE=%y" -T "TRACKNUMBER=%n" -T "GENRE=%m" -T "COMMENT=%e" %j--picture="%i"%j %s -o %d
TOC of the extracted CD
Track | Start | Length | Start sector | End sector --------------------------------------------------------- 1 | 0:00.00 | 3:22.70 | 0 | 15219 2 | 3:22.70 | 3:55.00 | 15220 | 32844 3 | 7:17.70 | 5:51.57 | 32845 | 59226 4 | 13:09.52 | 6:25.38 | 59227 | 88139
Track 1
Filename G:\Torrent\Megaherz - Liebeslied (1995) - FLAC\1. Megaherz - Liebeslied (ATB Radio Mix).wav
Pre-gap length 0:00:02.00
Peak level 100.0 % Extraction speed 4.7 X Track quality 100.0 % Test CRC 736F5226 Copy CRC 736F5226 Track not present in AccurateRip database Copy OK
Track 2
Filename G:\Torrent\Megaherz - Liebeslied (1995) - FLAC\2. Megaherz - Liebeslied (Original Version).wav
Pre-gap length 0:00:01.03
Peak level 100.0 % Extraction speed 5.4 X Track quality 100.0 % Test CRC 5B847611 Copy CRC 5B847611 Track not present in AccurateRip database Copy OK
Track 3
Filename G:\Torrent\Megaherz - Liebeslied (1995) - FLAC\3. Megaherz - Liebeslied (Extended Club Mix).wav
Pre-gap length 0:00:00.70
Peak level 100.0 % Extraction speed 6.4 X Track quality 100.0 % Test CRC FFAC81DE Copy CRC FFAC81DE Track not present in AccurateRip database Copy OK
Track 4
Filename G:\Torrent\Megaherz - Liebeslied (1995) - FLAC\4. Megaherz - Liebeslied (Widey Club Mix).wav
Pre-gap length 0:00:01.12
Peak level 100.0 % Extraction speed 5.6 X Track quality 99.9 % Test CRC 9F4AD845 Copy CRC 9F4AD845 Track not present in AccurateRip database Copy OK
None of the tracks are present in the AccurateRip database
No errors occurred
End of status report

Содержание индексной карты (.CUE)

REM GENRE RaveREM DATE 1996REM DISCID 29049704REM COMMENT "ExactAudioCopy v1.0b1"PERFORMER "Megaherz"TITLE "Liebeslied"FILE "1. Megaherz - Liebeslied (ATB Radio Mix).wav" WAVE TRACK 01 AUDIO TITLE "Liebeslied (ATB Radio Mix)" PERFORMER "Megaherz" INDEX 01 00:00:00 TRACK 02 AUDIO TITLE "Liebeslied (Original Version)" PERFORMER "Megaherz" INDEX 00 03:21:67FILE "2. Megaherz - Liebeslied (Original Version).wav" WAVE INDEX 01 00:00:00 TRACK 03 AUDIO TITLE "Liebeslied (Extended Club Mix)" PERFORMER "Megaherz" INDEX 00 03:54:05FILE "3. Megaherz - Liebeslied (Extended Club Mix).wav" WAVE INDEX 01 00:00:00 TRACK 04 AUDIO TITLE "Liebeslied (Widey Club Mix)" PERFORMER "Megaherz" INDEX 00 05:50:45FILE "4. Megaherz - Liebeslied (Widey Club Mix).wav" WAVE INDEX 01 00:00:00

_________________
Показать сообщения:    

Текущее время: Сегодня 20:25

Часовой пояс: GMT



Вы не можете начинать темы
Вы не можете отвечать на сообщения
Вы не можете редактировать свои сообщения
Вы не можете удалять свои сообщения
Вы не можете голосовать в опросах
Вы не можете прикреплять файлы к сообщениям
Вы не можете скачивать файлы