(Happy Hardcore) [CD] VA - Sinterklaasje Hakkuh Hakkuh, Baasje - 1997, FLAC (image+.cue), lossless :: Ивановский Торрент трекер
Важное объявление!
У Нас Все раздачи мультитрекерные, при нуле пиров в релизах, можете смело вставать на закачку!
Статистика раздачи
Размер:     |    Зарегистрирован:     |    Скачан:     |   
Нет
 
     
 
 
Автор Сообщение

HUNTER

Стаж:
4 года 11 месяцев
Сообщений:
66116

Репутация: 101

[+] [-]
Вне форума [Профиль] [ЛС]

Sinterklaasje Hakkuh Hakkuh, Baasje
Жанр: Happy Hardcore
Носитель: CD
Страна-производитель диска (релиза): Netherlands
Год издания: 1997
Издатель (лейбл): Multi Media International
Номер по каталогу: MMI 0075
Аудиокодек: FLAC (*.flac)
Тип рипа: image+.cue
Битрейт аудио: lossless
Продолжительность: 43:05
Источник (релизер): Рип с диска из собственной коллекции.
Наличие сканов в содержимом раздачи: нет
Треклист:
1 Hoor Wie Hakt Daar Kind'ren 3:56
2 Sinterklaasjuh Kom Maar Binnuh Met Je Knecht 2:40
3 Sinterklaas Goedheilig Man, Ga Is Lekker Hakkuh Man 3:12
4 Hij Komt, Hij Komt 3:13
5 Sinterklaasjuh Bonnuh Bonnuh Bonnuh 3:25
6 De Zak Van Sinterklaas 2:47
7 Zachtjes Gaan De Paardevoetjuhs 3:55
8 Wie Komt Er Alluh Jaruh 3:29
9 Sinterklaas Kapoentjuh 3:08
10 Sinterklaasje Hakkuh Hakkuh Hakkuh 2:40
11 Dag Sinterklaasjuh 3:41
12 Sinterklaas Die Goeiuh Heer, Komt Hier Alluh Jaruh Weer 3:00
13 He, Kom Er Us Kijkuh 3:33

Лог создания рипа

Exact Audio Copy V1.0 beta 3 from 29. August 2011
EAC extraction logfile from 15. January 2015, 15:33
Various Artists / Sinterklaasje Hakkuh Hakkuh, Baasje
Used drive : PIONEER DVD-RW DVR-218L Adapter: 3 ID: 0
Read mode : SecureUtilize accurate stream : YesDefeat audio cache : YesMake use of C2 pointers : No
Read offset correction : 6Overread into Lead-In and Lead-Out : NoFill up missing offset samples with silence : YesDelete leading and trailing silent blocks : NoNull samples used in CRC calculations : YesUsed interface : Installed external ASPI interface
Used output format : User Defined EncoderSelected bitrate : 128 kBit/sQuality : HighAdd ID3 tag : NoCommand line compressor : C:\Program Files (x86)\Exact Audio Copy\Flac\flac.exeAdditional command line options : -V -8 %source%
TOC of the extracted CD
Track | Start | Length | Start sector | End sector --------------------------------------------------------- 1 | 0:00.00 | 3:58.15 | 0 | 17864 2 | 3:58.15 | 2:42.42 | 17865 | 30056 3 | 6:40.57 | 3:13.70 | 30057 | 44601 4 | 9:54.52 | 3:15.03 | 44602 | 59229 5 | 13:09.55 | 3:26.67 | 59230 | 74746 6 | 16:36.47 | 2:49.55 | 74747 | 87476 7 | 19:26.27 | 3:57.23 | 87477 | 105274 8 | 23:23.50 | 3:31.12 | 105275 | 121111 9 | 26:54.62 | 3:08.65 | 121112 | 135276 10 | 30:03.52 | 2:42.48 | 135277 | 147474 11 | 32:46.25 | 3:43.32 | 147475 | 164231 12 | 36:29.57 | 3:01.73 | 164232 | 177879 13 | 39:31.55 | 3:34.05 | 177880 | 193934
Range status and errors
Selected range
Filename D:\Новая папка\Various Artists - Sinterklaasje Hakkuh Hakkuh, Baasje.wav
Peak level 98.0 % Extraction speed 1.7 X Range quality 100.0 % Test CRC 2465268B Copy CRC 2465268B Copy OK
No errors occurred
AccurateRip summary
Track 1 accurately ripped (confidence 1) [771D74E8] (AR v1)Track 2 accurately ripped (confidence 1) [7443D345] (AR v1)Track 3 accurately ripped (confidence 1) [918D1E9B] (AR v1)Track 4 accurately ripped (confidence 1) [FA71041E] (AR v1)Track 5 accurately ripped (confidence 1) [6575CE91] (AR v1)Track 6 accurately ripped (confidence 1) [3335E711] (AR v1)Track 7 accurately ripped (confidence 1) [F4B2659C] (AR v1)Track 8 accurately ripped (confidence 1) [49F0C690] (AR v1)Track 9 accurately ripped (confidence 1) [582AFEA7] (AR v1)Track 10 accurately ripped (confidence 1) [44CF6EF0] (AR v1)Track 11 accurately ripped (confidence 1) [CFF548AB] (AR v1)Track 12 accurately ripped (confidence 1) [5FBD2B40] (AR v1)Track 13 accurately ripped (confidence 1) [1D503AA9] (AR v1)
All tracks accurately ripped
End of status report
==== Log checksum D22F5451FAF7DC7397FCC7E9DB830975A193488CA0BB2CAE20535F673D73240E ====

Доп. информация:

Discogs

_________________
Показать сообщения:    

Текущее время: Сегодня 10:56

Часовой пояс: GMT



Вы не можете начинать темы
Вы не можете отвечать на сообщения
Вы не можете редактировать свои сообщения
Вы не можете удалять свои сообщения
Вы не можете голосовать в опросах
Вы не можете прикреплять файлы к сообщениям
Вы не можете скачивать файлы