Ивановский Торрент трекер
Яндекс.Погода
 

[Цитировать]
HUNTER

Hakkuh En Feestuh
Жанр: Happy Hardcore
Носитель: CD
Страна-производитель диска (релиза): Netherlands
Год издания: 1997
Издатель (лейбл): DGR
Номер по каталогу: DGR 1122
Аудиокодек: FLAC (*.flac)
Тип рипа: tracks+.cue
Битрейт аудио: lossless
Продолжительность: 54:06
Источник (релизер): Рип с диска из собственной коллекции.
Наличие сканов в содержимом раздачи: нет
Треклист:
1. Jan Draaitol - Hakcity (2:53)
2. Albert de Keu - House Met Strauss (3:11)
3. Feestbeesten - Hava Naquila (3:11)
4. Jolly Jokers - Tiritomba (3:34)
5. Mestoverschot - Klompenrave (3:39)
6. Duo de Johans - De Lederhose Polka (3:22)
7. Polonaise Flip - Lang Zal Die Revuh (3:21)
8. Flippuhkoor - Wat Gaan We Doe Met (3:45)
9. Wampie Wouters - Ok Verscheurde Je Foto (3:28)
10. Gabber Dirk - Ik Ben Een Gabber (3:09)
11. Strouswouse - 18e Eeuw Rave Mix (4:07)
12. Housezangers - 'S Nachts Na Tweeen (3:28)
13. Jan Fuif - Viva Espana (3:20)
14. Betty Bras - Gaan Met Die Banaan (3:16)
15. Swaber Pieter - Willie Helmus (3:16)
16. Urker Hakkers - Mosselman (3:06)

Лог создания рипа

Exact Audio Copy V1.0 beta 3 from 29. August 2011
EAC extraction logfile from 1. April 2015, 15:54
Various Artists / Hakkuh En Feestuh
Used drive : PIONEER DVD-RW DVR-111D Adapter: 0 ID: 0
Read mode : SecureUtilize accurate stream : YesDefeat audio cache : YesMake use of C2 pointers : No
Read offset correction : 48Overread into Lead-In and Lead-Out : NoFill up missing offset samples with silence : YesDelete leading and trailing silent blocks : NoNull samples used in CRC calculations : YesUsed interface : Installed external ASPI interfaceGap handling : Appended to previous track
Used output format : User Defined EncoderSelected bitrate : 128 kBit/sQuality : HighAdd ID3 tag : NoCommand line compressor : C:\Program Files (x86)\Exact Audio Copy\Flac\flac.exeAdditional command line options : -8 -V -T "ARTIST=%artist%" -T "TITLE=%title%" -T "ALBUM=%albumtitle%" -T "DATE=%year%" -T "TRACKNUMBER=%tracknr%" -T "TOTALTRACKS=%numtracks%" -T "DISCNUMBER=%cdnumber%" -T "TOTALDISCS=%totalcds%" -T "PERFORMER=%albuminterpret%" -T "COMPOSER=%composer%" -T "GENRE=%genre%" -T "ALBUMARTIST=%albumartist%" -T "ALBUM ARTIST=%albumartist%" -T "COMMENT=%comment%" %source%
TOC of the extracted CD
Track | Start | Length | Start sector | End sector --------------------------------------------------------- 1 | 0:00.00 | 2:53.43 | 0 | 13017 2 | 2:53.43 | 3:11.49 | 13018 | 27391 3 | 6:05.17 | 3:11.01 | 27392 | 41717 4 | 9:16.18 | 3:34.45 | 41718 | 57812 5 | 12:50.63 | 3:39.56 | 57813 | 74293 6 | 16:30.44 | 3:22.55 | 74294 | 89498 7 | 19:53.24 | 3:21.17 | 89499 | 104590 8 | 23:14.41 | 3:45.29 | 104591 | 121494 9 | 26:59.70 | 3:28.36 | 121495 | 137130 10 | 30:28.31 | 3:09.26 | 137131 | 151331 11 | 33:37.57 | 4:07.32 | 151332 | 169888 12 | 37:45.14 | 3:28.66 | 169889 | 185554 13 | 41:14.05 | 3:20.68 | 185555 | 200622 14 | 44:34.73 | 3:16.70 | 200623 | 215392 15 | 47:51.68 | 3:16.72 | 215393 | 230164 16 | 51:08.65 | 3:06.30 | 230165 | 244144
Track 1
Filename D:\Новая папка\01. Jan Draaitol - Hakcity.wav
Pre-gap length 0:00:02.00
Peak level 89.1 % Extraction speed 4.0 X Track quality 100.0 % Test CRC 0EEF51F5 Copy CRC 0EEF51F5 Track not present in AccurateRip database Copy OK
Track 2
Filename D:\Новая папка\02. Albert de Keu - House Met Strauss.wav
Pre-gap length 0:00:02.00
Peak level 89.1 % Extraction speed 4.5 X Track quality 100.0 % Test CRC DA2220F0 Copy CRC DA2220F0 Track not present in AccurateRip database Copy OK
Track 3
Filename D:\Новая папка\03. Feestbeesten - Hava Naquila.wav
Pre-gap length 0:00:02.00
Peak level 89.1 % Extraction speed 4.8 X Track quality 100.0 % Test CRC 61E3CC45 Copy CRC 61E3CC45 Track not present in AccurateRip database Copy OK
Track 4
Filename D:\Новая папка\04. Jolly Jokers - Tiritomba.wav
Pre-gap length 0:00:02.00
Peak level 89.1 % Extraction speed 5.2 X Track quality 100.0 % Test CRC BDCAD321 Copy CRC BDCAD321 Track not present in AccurateRip database Copy OK
Track 5
Filename D:\Новая папка\05. Mestoverschot - Klompenrave.wav
Pre-gap length 0:00:02.00
Peak level 89.1 % Extraction speed 4.8 X Track quality 99.9 % Test CRC 6313D838 Copy CRC 6313D838 Track not present in AccurateRip database Copy OK
Track 6
Filename D:\Новая папка\06. Duo de Johans - De Lederhose Polka.wav
Pre-gap length 0:00:02.00
Peak level 89.1 % Extraction speed 5.7 X Track quality 100.0 % Test CRC 049CC451 Copy CRC 049CC451 Track not present in AccurateRip database Copy OK
Track 7
Filename D:\Новая папка\07. Polonaise Flip - Lang Zal Die Revuh.wav
Pre-gap length 0:00:02.00
Peak level 89.1 % Extraction speed 6.0 X Track quality 100.0 % Test CRC 397C3D13 Copy CRC 397C3D13 Track not present in AccurateRip database Copy OK
Track 8
Filename D:\Новая папка\08. Flippuhkoor - Wat Gaan We Doe Met.wav
Pre-gap length 0:00:02.00
Peak level 89.1 % Extraction speed 6.4 X Track quality 100.0 % Test CRC B5D532FB Copy CRC B5D532FB Track not present in AccurateRip database Copy OK
Track 9
Filename D:\Новая папка\09. Wampie Wouters - Ok Verscheurde Je Foto.wav
Pre-gap length 0:00:02.00
Peak level 89.1 % Extraction speed 5.7 X Track quality 99.9 % Test CRC 63D6B057 Copy CRC 63D6B057 Track not present in AccurateRip database Copy OK
Track 10
Filename D:\Новая папка\10. Gabber Dirk - Ik Ben Een Gabber.wav
Pre-gap length 0:00:02.00
Peak level 89.1 % Extraction speed 6.6 X Track quality 100.0 % Test CRC 496A1910 Copy CRC 496A1910 Track not present in AccurateRip database Copy OK
Track 11
Filename D:\Новая папка\11. Strouswouse - 18e Eeuw Rave Mix.wav
Pre-gap length 0:00:02.00
Peak level 89.1 % Extraction speed 7.1 X Track quality 100.0 % Test CRC BC537DB5 Copy CRC BC537DB5 Track not present in AccurateRip database Copy OK
Track 12
Filename D:\Новая папка\12. Housezangers - 'S Nachts Na Tweeen.wav
Pre-gap length 0:00:02.00
Peak level 89.1 % Extraction speed 7.1 X Track quality 100.0 % Test CRC 91943769 Copy CRC 91943769 Track not present in AccurateRip database Copy OK
Track 13
Filename D:\Новая папка\13. Jan Fuif - Viva Espana.wav
Pre-gap length 0:00:02.00
Peak level 89.1 % Extraction speed 7.2 X Track quality 100.0 % Test CRC 019FC3D9 Copy CRC 019FC3D9 Track not present in AccurateRip database Copy OK
Track 14
Filename D:\Новая папка\14. Betty Bras - Gaan Met Die Banaan.wav
Pre-gap length 0:00:02.00
Peak level 89.1 % Extraction speed 7.4 X Track quality 100.0 % Test CRC 9920A467 Copy CRC 9920A467 Track not present in AccurateRip database Copy OK
Track 15
Filename D:\Новая папка\15. Swaber Pieter - Willie Helmus.wav
Pre-gap length 0:00:02.00
Peak level 89.1 % Extraction speed 7.6 X Track quality 100.0 % Test CRC 7B8D84F0 Copy CRC 7B8D84F0 Track not present in AccurateRip database Copy OK
Track 16
Filename D:\Новая папка\16. Urker Hakkers - Mosselman.wav
Pre-gap length 0:00:02.00
Peak level 89.1 % Extraction speed 7.6 X Track quality 100.0 % Test CRC AB6BCD36 Copy CRC AB6BCD36 Track not present in AccurateRip database Copy OK
None of the tracks are present in the AccurateRip database
No errors occurred
End of status report
==== Log checksum 6499D11029B535E1D07ED883CC591917BEC5122D15593F5B49CF58D4CBB5CD62 ====

Содержание индексной карты (.CUE)

REM GENRE "Happy Hardcore"REM DATE 1997REM DISCID F10CB710REM COMMENT "ExactAudioCopy v1.0b3"PERFORMER "Various Artists"TITLE "Hakkuh En Feestuh"FILE "01. Jan Draaitol - Hakcity.wav" WAVE TRACK 01 AUDIO TITLE "Hakcity" PERFORMER "Jan Draaitol" INDEX 01 00:00:00 TRACK 02 AUDIO TITLE "House Met Strauss" PERFORMER "Albert de Keu" INDEX 00 02:51:43FILE "02. Albert de Keu - House Met Strauss.wav" WAVE INDEX 01 00:00:00 TRACK 03 AUDIO TITLE "Hava Naquila" PERFORMER "Feestbeesten" INDEX 00 03:09:49FILE "03. Feestbeesten - Hava Naquila.wav" WAVE INDEX 01 00:00:00 TRACK 04 AUDIO TITLE "Tiritomba" PERFORMER "Jolly Jokers" INDEX 00 03:09:01FILE "04. Jolly Jokers - Tiritomba.wav" WAVE INDEX 01 00:00:00 TRACK 05 AUDIO TITLE "Klompenrave" PERFORMER "Mestoverschot" INDEX 00 03:32:45FILE "05. Mestoverschot - Klompenrave.wav" WAVE INDEX 01 00:00:00 TRACK 06 AUDIO TITLE "De Lederhose Polka" PERFORMER "Duo de Johans" INDEX 00 03:37:56FILE "06. Duo de Johans - De Lederhose Polka.wav" WAVE INDEX 01 00:00:00 TRACK 07 AUDIO TITLE "Lang Zal Die Revuh" PERFORMER "Polonaise Flip" INDEX 00 03:20:55FILE "07. Polonaise Flip - Lang Zal Die Revuh.wav" WAVE INDEX 01 00:00:00 TRACK 08 AUDIO TITLE "Wat Gaan We Doe Met" PERFORMER "Flippuhkoor" INDEX 00 03:19:17FILE "08. Flippuhkoor - Wat Gaan We Doe Met.wav" WAVE INDEX 01 00:00:00 TRACK 09 AUDIO TITLE "Ok Verscheurde Je Foto" PERFORMER "Wampie Wouters" INDEX 00 03:43:29FILE "09. Wampie Wouters - Ok Verscheurde Je Foto.wav" WAVE INDEX 01 00:00:00 TRACK 10 AUDIO TITLE "Ik Ben Een Gabber" PERFORMER "Gabber Dirk" INDEX 00 03:26:36FILE "10. Gabber Dirk - Ik Ben Een Gabber.wav" WAVE INDEX 01 00:00:00 TRACK 11 AUDIO TITLE "18e Eeuw Rave Mix" PERFORMER "Strouswouse" INDEX 00 03:07:26FILE "11. Strouswouse - 18e Eeuw Rave Mix.wav" WAVE INDEX 01 00:00:00 TRACK 12 AUDIO TITLE "'S Nachts Na Tweeen" PERFORMER "Housezangers" INDEX 00 04:05:32FILE "12. Housezangers - 'S Nachts Na Tweeen.wav" WAVE INDEX 01 00:00:00 TRACK 13 AUDIO TITLE "Viva Espana" PERFORMER "Jan Fuif" INDEX 00 03:26:66FILE "13. Jan Fuif - Viva Espana.wav" WAVE INDEX 01 00:00:00 TRACK 14 AUDIO TITLE "Gaan Met Die Banaan" PERFORMER "Betty Bras" INDEX 00 03:18:68FILE "14. Betty Bras - Gaan Met Die Banaan.wav" WAVE INDEX 01 00:00:00 TRACK 15 AUDIO TITLE "Willie Helmus" PERFORMER "Swaber Pieter" INDEX 00 03:14:70FILE "15. Swaber Pieter - Willie Helmus.wav" WAVE INDEX 01 00:00:00 TRACK 16 AUDIO TITLE "Mosselman" PERFORMER "Urker Hakkers" INDEX 00 03:14:72FILE "16. Urker Hakkers - Mosselman.wav" WAVE INDEX 01 00:00:00

Доп. информация:

Discogs


Показать сообщения:    

Текущее время: 11-Дек 07:39

Часовой пояс: UTC ± 0


Вы не можете начинать темы
Вы не можете отвечать на сообщения
Вы не можете редактировать свои сообщения
Вы не можете удалять свои сообщения
Вы не можете голосовать в опросах
Вы не можете прикреплять файлы к сообщениям
Вы не можете скачивать файлы

!ВНИМАНИЕ!
Сайт не предоставляет электронные версии произведений, а занимается лишь коллекционированием и каталогизацией ссылок, присылаемых и публикуемых на форуме нашими читателями. Если вы являетесь правообладателем какого-либо представленного материала и не желаете, чтобы ссылка на него находилась в нашем каталоге, свяжитесь с нами, и мы незамедлительно удалим ее. Файлы для обмена на трекере предоставлены пользователями сайта, и администрация не несет ответственности за их содержание. Просьба не заливать файлы, защищенные авторскими правами, а также файлы нелегального содержания!