Важное объявление!
У Нас Все раздачи мультитрекерные, при нуле пиров в релизах, можете смело вставать на закачку!
Статистика раздачи
Размер:     |    Зарегистрирован:     |    Скачан:     |   
Нет
 
     
 
 
Автор Сообщение

HUNTER

Стаж:
5 лет 1 месяц
Сообщений:
68449

Репутация: 101

[+] [-]
Вне форума [Профиль] [ЛС]

Raving Star - Raving Star
Жанр: Happy Hardcore
Носитель: CD
Страна-производитель диска: Germany
Год издания: 1995
Издатель (лейбл): Deep Groove
Номер по каталогу: 74321 24987 2
Аудиокодек: FLAC (*.flac)
Тип рипа: tracks+.cue
Битрейт аудио: lossless
Продолжительность: 00:35:18
Источник (релизер): собственный рип
Наличие сканов в содержимом раздачи: да

Треклист:
01. Raving Star (Radio Edit) (4:06)
02. Wandrin' Star (Radio Version) (3:36)
03. Wandrin' Star (Tokapi's Radio Cut) (3:35)
04. Raving Star (Tokapi's Remix) (6:21)
05. Wandrin' Star (Tokapi's Wonder Mix) (5:39)
06. Wandrin' Star (Tokapi's Basic Mix) (6:21)
07. Raving Star (Original Mix) (5:40)-
-

Лог создания рипа

Exact Audio Copy V0.99 prebeta 5 from 4. May 2009
EAC extraction logfile from 6. September 2011, 12:08
Raving Star / Raving Star
Used drive : ASUS DRW-1814BLT Adapter: 1 ID: 0
Read mode : SecureUtilize accurate stream : YesDefeat audio cache : YesMake use of C2 pointers : No
Read offset correction : 6Overread into Lead-In and Lead-Out : NoFill up missing offset samples with silence : YesDelete leading and trailing silent blocks : NoNull samples used in CRC calculations : YesUsed interface : Native Win32 interface for Win NT & 2000Gap handling : Appended to previous track
Used output format : User Defined EncoderSelected bitrate : 1024 kBit/sQuality : HighAdd ID3 tag : NoCommand line compressor : C:\Program Files\EAC\Flac\flac.exeAdditional command line options : -8 -V -T "ARTIST=%a" -T "TITLE=%t" -T "ALBUM=%g" -T "DATE=%y" -T "TRACKNUMBER=%n" -T "GENRE=%m" -T "COMMENT=EAC FLAC -8" %s
TOC of the extracted CD
Track | Start | Length | Start sector | End sector --------------------------------------------------------- 1 | 0:00.32 | 4:05.68 | 32 | 18474 2 | 4:06.25 | 3:35.67 | 18475 | 34666 3 | 7:42.17 | 3:34.40 | 34667 | 50756 4 | 11:16.57 | 6:21.25 | 50757 | 79356 5 | 17:38.07 | 5:38.65 | 79357 | 104771 6 | 23:16.72 | 6:21.35 | 104772 | 133381 7 | 29:38.32 | 5:39.38 | 133382 | 158844
Track 1
Filename C:\01. Raving Star - Raving Star (Radio Edit).wav
Pre-gap length 0:00:02.42
Peak level 100.0 % Track quality 100.0 % Test CRC 12F16C01 Copy CRC 12F16C01 Track not present in AccurateRip database Copy OK
Track 2
Filename C:\02. Raving Star - Wandrin' Star (Radio Version).wav
Pre-gap length 0:00:02.33
Peak level 100.0 % Track quality 100.0 % Test CRC 8CDCF88E Copy CRC 8CDCF88E Track not present in AccurateRip database Copy OK
Track 3
Filename C:\03. Raving Star - Wandrin' Star (Tokapi's Radio Cut).wav
Pre-gap length 0:00:02.26
Peak level 100.0 % Track quality 99.9 % Test CRC 9D044A28 Copy CRC 9D044A28 Track not present in AccurateRip database Copy OK
Track 4
Filename C:\04. Raving Star - Raving Star (Tokapi's Remix).wav
Pre-gap length 0:00:02.06
Peak level 100.0 % Track quality 100.0 % Test CRC FA9FAF10 Copy CRC FA9FAF10 Track not present in AccurateRip database Copy OK
Track 5
Filename C:\05. Raving Star - Wandrin' Star (Tokapi's Wonder Mix).wav
Pre-gap length 0:00:02.00
Peak level 100.0 % Track quality 100.0 % Test CRC 2EDDE83B Copy CRC 2EDDE83B Track not present in AccurateRip database Copy OK
Track 6
Filename C:\06. Raving Star - Wandrin' Star (Tokapi's Basic Mix).wav
Pre-gap length 0:00:02.40
Peak level 100.0 % Track quality 100.0 % Test CRC D88FB1B3 Copy CRC D88FB1B3 Track not present in AccurateRip database Copy OK
Track 7
Filename C:\07. Raving Star - Raving Star (Original Mix).wav
Pre-gap length 0:00:02.20
Peak level 99.0 % Track quality 100.0 % Test CRC CBA9704F Copy CRC CBA9704F Track not present in AccurateRip database Copy OK
None of the tracks are present in the AccurateRip database
No errors occurred
End of status report

Содержание индексной карты (.CUE)

REM GENRE HardcoreREM DATE 1995REM DISCID 5F084507REM COMMENT "ExactAudioCopy v0.99pb5"PERFORMER "Raving Star"TITLE "Raving Star"FILE "01. Raving Star - Raving Star (Radio Edit).wav" WAVE TRACK 01 AUDIO TITLE "Raving Star (Radio Edit)" PERFORMER "Raving Star" PREGAP 00:00:32 INDEX 01 00:00:00 TRACK 02 AUDIO TITLE "Wandrin' Star (Radio Version)" PERFORMER "Raving Star" INDEX 00 04:03:43FILE "02. Raving Star - Wandrin' Star (Radio Version).wav" WAVE INDEX 01 00:00:00 TRACK 03 AUDIO TITLE "Wandrin' Star (Tokapi's Radio Cut)" PERFORMER "Raving Star" INDEX 00 03:33:47FILE "03. Raving Star - Wandrin' Star (Tokapi's Radio Cut).wav" WAVE INDEX 01 00:00:00 TRACK 04 AUDIO TITLE "Raving Star (Tokapi's Remix)" PERFORMER "Raving Star" INDEX 00 03:32:35FILE "04. Raving Star - Raving Star (Tokapi's Remix).wav" WAVE INDEX 01 00:00:00 TRACK 05 AUDIO TITLE "Wandrin' Star (Tokapi's Wonder Mix)" PERFORMER "Raving Star" INDEX 00 06:19:25FILE "05. Raving Star - Wandrin' Star (Tokapi's Wonder Mix).wav" WAVE INDEX 01 00:00:00 TRACK 06 AUDIO TITLE "Wandrin' Star (Tokapi's Basic Mix)" PERFORMER "Raving Star" INDEX 00 05:36:35FILE "06. Raving Star - Wandrin' Star (Tokapi's Basic Mix).wav" WAVE INDEX 01 00:00:00 TRACK 07 AUDIO TITLE "Raving Star (Original Mix)" PERFORMER "Raving Star" INDEX 00 06:19:20FILE "07. Raving Star - Raving Star (Original Mix).wav" WAVE INDEX 01 00:00:00

-
-

_________________
Показать сообщения:    

Текущее время: Сегодня 06:44

Часовой пояс: GMT



Вы не можете начинать темы
Вы не можете отвечать на сообщения
Вы не можете редактировать свои сообщения
Вы не можете удалять свои сообщения
Вы не можете голосовать в опросах
Вы не можете прикреплять файлы к сообщениям
Вы не можете скачивать файлы