Ивановский Торрент трекер
Яндекс.Погода
 

[Цитировать]
HUNTER

Blue Zone – Too Beautiful (Maxi CD)
Жанр: Happy Hardcore
Страна-производитель диска: Netherlands
Год издания: 1996
Издатель (лейбл): Pengo Records
Номер по каталогу: PENGO 017 CDM
Аудиокодек: FLAC (*.flac)
Тип рипа: image+.cue
Битрейт аудио: lossless
Продолжительность: 27:47
Источник (релизер): Собственный рип
Наличие сканов в содержимом раздачи: да
Треклист:
1 Too Beautiful (Radio Edit) 3:54
2 Too Beautiful (Happy Radio Edit) 4:03
3 Too Beautiful (Cixx's Happy Hardcore Version) 3:56
4 Too Beautiful (Extended Version) 5:14
5 Too Beautiful (That's Right Mix) 5:47
6 Too Beautiful (Ugly Hardcore Mix) 4:37

Лог создания рипа

Exact Audio Copy V1.0 beta 2 from 29. April 2011
Отчёт EAC об извлечении, выполненном 15. октября 2011, 18:39
Blue Zone / Too Beautiful
Дисковод: Optiarc DVD RW AD-7200S Adapter: 2 ID: 0
Режим чтения : ДостоверностьИспользование точного потока : ДаОтключение кэша аудио : ДаИспользование указателей C2 : Нет
Коррекция смещения при чтении : 48Способность читать области Lead-in и Lead-out : НетЗаполнение пропущенных сэмплов тишиной : ДаУдаление блоков с тишиной в начале и конце : НетПри вычислениях CRC использовались нулевые сэмплы : ДаИнтерфейс : Встроенный Win32-интерфейс для Win NT/2000
Выходной формат : Внутренние WAV-операцииФормат сэмплов : 44.100 Гц; 16 бит; стерео
TOC извлечённого CD
Трек | Старт | Длительность | Начальный сектор | Конечный сектор --------------------------------------------------------------------- 1 | 0:00.33 | 3:56.27 | 33 | 17759 2 | 3:56.60 | 4:04.65 | 17760 | 36124 3 | 8:01.50 | 3:59.33 | 36125 | 54082 4 | 12:01.08 | 5:17.42 | 54083 | 77899 5 | 17:18.50 | 5:49.25 | 77900 | 104099 6 | 23:08.00 | 4:39.08 | 104100 | 125032
Характеристики диапазона извлечения и сообщения об ошибках
Выбранный диапазон
Имя файла C:\Documents and Settings\vova\Рабочий стол\555\Blue Zone - Too Beautiful.wav
Пиковый уровень 98.3 % Скорость извлечения 3.3 X Качество диапазона 100.0 % CRC теста FF0DA979 CRC копии FF0DA979 Копирование... OK
Ошибок не произошло
AccurateRip: сводка
Трек 1 : извлечено точно (доверие 1) [FBEA5486] (AR v1)Трек 2 : извлечено точно (доверие 1) [DCC7DF97] (AR v1)Трек 3 : извлечено точно (доверие 1) [544EC113] (AR v1)Трек 4 : извлечено точно (доверие 1) [5792D1B2] (AR v1)Трек 5 : извлечено точно (доверие 1) [CA652836] (AR v1)Трек 6 : извлечено точно (доверие 1) [62907B51] (AR v1)
Все треки извлечены точно
Конец отчёта
Доп. информация: http://www.discogs.com/Blue-Zone-Too-Beautiful/release/250340
Показать сообщения:    

Текущее время: 26-Сен 01:10

Часовой пояс: UTC - 1


Вы не можете начинать темы
Вы не можете отвечать на сообщения
Вы не можете редактировать свои сообщения
Вы не можете удалять свои сообщения
Вы не можете голосовать в опросах
Вы не можете прикреплять файлы к сообщениям
Вы не можете скачивать файлы

!ВНИМАНИЕ!
Сайт не предоставляет электронные версии произведений, а занимается лишь коллекционированием и каталогизацией ссылок, присылаемых и публикуемых на форуме нашими читателями. Если вы являетесь правообладателем какого-либо представленного материала и не желаете, чтобы ссылка на него находилась в нашем каталоге, свяжитесь с нами, и мы незамедлительно удалим ее. Файлы для обмена на трекере предоставлены пользователями сайта, и администрация не несет ответственности за их содержание. Просьба не заливать файлы, защищенные авторскими правами, а также файлы нелегального содержания!