Важное объявление!
У Нас Все раздачи мультитрекерные, при нуле пиров в релизах, можете смело вставать на закачку!
Статистика раздачи
Размер:     |    Зарегистрирован:     |    Скачан:     |   
Нет
 
     
 
 
Автор Сообщение

HUNTER

Стаж:
5 лет
Сообщений:
67920

Репутация: 101

[+] [-]
Вне форума [Профиль] [ЛС]

Axis - Come On
Жанр: Happy Hardcore
Страна-производитель диска: Germany
Год издания: 1995
Издатель (лейбл): Ariola
Номер по каталогу: 74321 281152
Страна: Germany
Аудиокодек: FLAC (*.flac)
Тип рипа: tracks+.cue
Битрейт аудио: lossless
Продолжительность: 17:03
Источник (релизер): Собственный рип
Наличие сканов в содержимом раздачи: да
Треклист:
01 - Come On
02 - So In Love
03 - Sunrise

Лог создания рипа

Exact Audio Copy V1.0 beta 3 from 29. August 2011
EAC extraction logfile from 14. May 2012, 15:02
Axis / Come On
Used drive : ATAPI iHAS124 B Adapter: 1 ID: 4
Read mode : SecureUtilize accurate stream : YesDefeat audio cache : YesMake use of C2 pointers : No
Read offset correction : 6Overread into Lead-In and Lead-Out : NoFill up missing offset samples with silence : YesDelete leading and trailing silent blocks : NoNull samples used in CRC calculations : YesUsed interface : Native Win32 interface for Win NT & 2000Gap handling : Appended to previous track
Used output format : User Defined EncoderSelected bitrate : 896 kBit/sQuality : HighAdd ID3 tag : NoCommand line compressor : C:\Program Files (x86)\FLAC\flac.exeAdditional command line options : -5 --delete-input-file -V -T Title="%title%" -T Artist="%artist%" -T Date="%year%" -T Tracknumber="%tracknr%" -T Album="%albumtitle%" %source%
TOC of the extracted CD
Track | Start | Length | Start sector | End sector --------------------------------------------------------- 1 | 0:00.05 | 5:30.62 | 5 | 24816 2 | 5:30.67 | 5:16.20 | 24817 | 48536 3 | 10:47.12 | 6:16.70 | 48537 | 76806
Track 1
Filename T:\Axis - Come On [1995]\01 - Come On.wav
Pre-gap length 0:00:02.05
Peak level 99.9 % Extraction speed 5.5 X Track quality 100.0 % Test CRC 5D0BB580 Copy CRC 5D0BB580 Accurately ripped (confidence 1) [38CD02D4] (AR v2) Copy OK
Track 2
Filename T:\Axis - Come On [1995]\02 - So In Love.wav
Pre-gap length 0:00:01.50
Peak level 99.9 % Extraction speed 6.2 X Track quality 100.0 % Test CRC A40F2E1E Copy CRC A40F2E1E Accurately ripped (confidence 1) [350B176F] (AR v2) Copy OK
Track 3
Filename T:\Axis - Come On [1995]\03 - Sunrise.wav
Pre-gap length 0:00:02.10
Peak level 99.9 % Extraction speed 7.1 X Track quality 100.0 % Test CRC 5D860A55 Copy CRC 5D860A55 Accurately ripped (confidence 1) [C4FB7253] (AR v2) Copy OK
All tracks accurately ripped
No errors occurred
End of status report
==== Log checksum 4A0EF6FB4F40917197A44BC72E593650E8C9CF09154108D39D2A71611EB1CB31 ====

Содержание индексной карты (.CUE)

REM DATE 1995REM DISCID 1D040003REM COMMENT "ExactAudioCopy v1.0b3"PERFORMER "Axis"TITLE "Come On"FILE "01 - Come On.wav" WAVE TRACK 01 AUDIO TITLE "Come On" PERFORMER "Axis" PREGAP 00:00:05 INDEX 01 00:00:00 TRACK 02 AUDIO TITLE "So In Love" PERFORMER "Axis" INDEX 00 05:29:12FILE "02 - So In Love.wav" WAVE INDEX 01 00:00:00 TRACK 03 AUDIO TITLE "Sunrise" PERFORMER "Axis" INDEX 00 05:14:10FILE "03 - Sunrise.wav" WAVE INDEX 01 00:00:00

Лог проверки качества

-----------------------
DON'T MODIFY THIS FILE
-----------------------
PERFORMER: auCDtect Task Manager, ver. 1.5.1RC6 build 1.5.1.7Copyright (c) 2008-2010 y-soft. All rights reservedhttp://y-soft.org
ANALYZER: auCDtect: CD records authenticity detector, version 0.8.2Copyright (c) 2004 Oleg Berngardt. All rights reserved.Copyright (c) 2004 Alexander Djourik. All rights reserved.
FILE: 03 - Sunrise.flac Size: 48902820 Hash: F9770896756D16220D48570DE4D720F8 Accuracy: -m0 Conclusion: CDDA 100% Signature: E826D094E8D51990566D5A12933A1626708AAE8FFILE: 02 - So In Love.flac Size: 39190990 Hash: 9EB9306233375E0EE5B440BE0987122B Accuracy: -m0 Conclusion: CDDA 100% Signature: A71A60C4F4FD10B53E9980AE4EA61E20DA56ACD2FILE: 01 - Come On.flac Size: 37621364 Hash: A0836B20E7952C8F5C72F5472E15B5D1 Accuracy: -m0 Conclusion: CDDA 99% Signature: 72DADA9C5D4A72895592350CCCF0A87A66BC4B5D

Скриншот спектра частот


_________________
Показать сообщения:    

Текущее время: Сегодня 12:35

Часовой пояс: GMT



Вы не можете начинать темы
Вы не можете отвечать на сообщения
Вы не можете редактировать свои сообщения
Вы не можете удалять свои сообщения
Вы не можете голосовать в опросах
Вы не можете прикреплять файлы к сообщениям
Вы не можете скачивать файлы