Важное объявление!
У Нас Все раздачи мультитрекерные, при нуле пиров в релизах, можете смело вставать на закачку!
 
Автор Сообщение

HUNTER

Стаж:
4 года 7 месяцев
Сообщений:
61460

Репутация: 101

[+] [-]
Вне форума [Профиль] [ЛС]


Halo 4: Идущий к рассвету
Halo 4: Forward Unto Dawn
-

  • Год производства: 2012

  • Страна: США / Vancouver, British Columbia, Canada

  • Жанр: Фантастика

  • Продолжительность: 01:31:23

  • Перевод: Многоголосый закадровый, любительский [StopGame]

  • Субтитры: Английские, вшитые отключаемые-
  • Режиссер: Стюарт Хендлер-
  • В ролях: Айэйн Белчер, Осрик Чау, Дэниэл Кадмор, Майк Допуд, Стив Даунс, Том Грин, Масам Холден, Анна Попплуэлл, Крис Шилдс-
  • Описание:
    Эта история возвращает игроков к началу войны между людьми и Ковенантами и подводит к событиям, происходящим в игре Halo 4. В стенах военной академии Космического Командования Объединённых Наций (UNSC) группу курсантов знатного происхождения готовят стать следующим поколением солдат в надвигающейся войне между UNCS и повстанцами на колониальных планетах. Один из кадетов, Томас Ласки, ведет внутреннюю борьбу, преодолевая сомнения по поводу войны и опасения не оправдать высоких ожиданий командования. К тому моменту, как Ласки смирился со своей ролью будущего командира, ужасающее войско альянса Ковенант вторгается на планету и переворачивает привычный мир героя с ног на голову. Вдохновлённый подвигами Мастера Чифа, Ласки должен на собственном опыте узнать, что значит быть героем.-
  • Качество видео: BDRip 1080p

  • Формат видео: mkv

  • Видео кодек: H264

  • Аудио кодек: AC3|DTS

  • Видео: MPEG4 Video, (H264), 1920x800, 23.976fps, 0.238 bitpixel

  • Аудио#1: Русский, (Dolby AC3, 2 ch), 192 Кбит/сек

  • Аудио#2: Английский, (DTS, 6 ch), 1510 Кбит/сек
-

Скриншоты

MediaInfo

Код: copyText_writeLink('this.parentNode.parentNode.nextSibling.nextSibling');
General
Unique ID : 175683964174324760440059419720264947832 (0x842B80302E961FCEA81B0DFCC9EB9878)
Complete name : D:\Торенты\Halo 4 Идущий к рассвету.2012.L.BDRip.1080p.mkv
Format : Matroska
Format version : Version 2
File size : 6.68 GiB
Duration : 1h 31mn
Overall bit rate : 10.5 Mbps
Encoded date : UTC 2012-11-17 13:00:04
Writing application : mkvmerge v5.8.0 ('No Sleep / Pillow') built on Sep 2 2012 15:37:04
Writing library : libebml v1.2.3 + libmatroska v1.3.0
Video
ID : 1
Format : AVC
Format/Info : Advanced Video Codec
Format profile : [url=mailto:High@L4.1]High@L4.1[/url]
Format settings, CABAC : Yes
Format settings, ReFrames : 5 frames
Codec ID : V_MPEG4/ISO/AVC
Duration : 1h 31mn
Bit rate : 8 760 Kbps
Width : 1 920 pixels
Height : 800 pixels
Display aspect ratio : 2.40:1
Frame rate mode : Constant
Frame rate : 23.976 fps
Color space : YUV
Chroma subsampling : 4:2:0
Bit depth : 8 bits
Scan type : Progressive
Bits/(Pixel*Frame) : 0.238
Stream size : 5.46 GiB (82%)
Writing library : x264 core 129 r2230 1cffe9f
Encoding settings : cabac=1 / ref=5 / deblock=1:0:0 / analyse=0x3:0x133 / me=umh / subme=7 / psy=1 / psy_rd=1.00:0.00 / mixed_ref=1 / me_range=16 / chroma_me=1 / trellis=1 / 8x8dct=1 / cqm=0 / deadzone=21,11 / fast_pskip=0 / chroma_qp_offset=-2 / threads=12 / lookahead_threads=2 / sliced_threads=0 / nr=0 / decimate=1 / interlaced=0 / bluray_compat=0 / constrained_intra=0 / bframes=3 / b_pyramid=2 / b_adapt=1 / b_bias=0 / direct=1 / weightb=1 / open_gop=0 / weightp=2 / keyint=250 / keyint_min=23 / scenecut=40 / intra_refresh=0 / rc_lookahead=40 / rc=2pass / mbtree=1 / bitrate=8760 / ratetol=1.0 / qcomp=0.60 / qpmin=0 / qpmax=69 / qpstep=4 / cplxblur=20.0 / qblur=0.5 / ip_ratio=1.40 / aq=1:1.00
Language : English
Default : Yes
Forced : No
Audio #1
ID : 2
Format : AC-3
Format/Info : Audio Coding 3
Mode extension : CM (complete main)
Format settings, Endianness : Big
Codec ID : A_AC3
Duration : 1h 31mn
Bit rate mode : Constant
Bit rate : 192 Kbps
Channel(s) : 2 channels
Channel positions : Front: L R
Sampling rate : 48.0 KHz
Bit depth : 16 bits
Compression mode : Lossy
Stream size : 126 MiB (2%)
Language : Russian
Default : Yes
Forced : No
Audio #2
ID : 3
Format : DTS
Format/Info : Digital Theater Systems
Codec ID : A_DTS
Duration : 1h 31mn
Bit rate mode : Constant
Bit rate : 1 510 Kbps
Channel(s) : 6 channels
Channel positions : Front: L C R, Side: L R, LFE
Sampling rate : 48.0 KHz
Bit depth : 24 bits
Compression mode : Lossy
Stream size : 987 MiB (14%)
Language : English
Default : No
Forced : No
Text
ID : 4
Format : UTF-8
Codec ID : S_TEXT/UTF8
Codec ID/Info : UTF-8 Plain Text
Language : English
Default : No
Forced : No
Menu
00:00:00.000 : en:00:00:00.000
00:04:14.546 : en:00:04:14.546
00:07:44.464 : en:00:07:44.464
00:08:31.928 : en:00:08:31.928
00:12:39.968 : en:00:12:39.968
00:16:24.692 : en:00:16:24.692
00:20:13.212 : en:00:20:13.212
00:25:52.968 : en:00:25:52.968
00:28:22.200 : en:00:28:22.200
00:31:57.207 : en:00:31:57.207
00:36:17.842 : en:00:36:17.842
00:40:53.868 : en:00:40:53.868
00:44:32.461 : en:00:44:32.461
00:46:29.495 : en:00:46:29.495
00:49:45.441 : en:00:49:45.441
00:53:58.402 : en:00:53:58.402
00:57:03.086 : en:00:57:03.086
01:03:23.133 : en:01:03:23.133
01:08:56.257 : en:01:08:56.257
01:12:07.156 : en:01:12:07.156
01:18:15.357 : en:01:18:15.357
01:24:02.079 : en:01:24:02.079

_________________
Показать сообщения:    

Текущее время: Сегодня 10:41

Часовой пояс: GMT



Вы не можете начинать темы
Вы не можете отвечать на сообщения
Вы не можете редактировать свои сообщения
Вы не можете удалять свои сообщения
Вы не можете голосовать в опросах
Вы не можете прикреплять файлы к сообщениям
Вы не можете скачивать файлы
Наши партнеры: интернет магазин Ивановского трикотажа textilla.ru