Ивановский Торрент трекер
Яндекс.Погода
 

[Цитировать]
HUNTER

-Halo 4: Идущий к рассвету / Halo 4: Forward Unto Dawn-
Год выпуска: 2012
Страна: США
Жанр: Фантастика, боевик, триллер
Продолжительность: 01:31:23
Перевод: Профессиональный многоголосый [Лицензия]
Субтитры: Нет-Режиссёр: Стюарт Хендлер
В ролях: Анна Попплуэлл, Том Грин, Эниша Брюстер, Айелет Зурер, Масам Холден, Майк Допуд, Айэйн Белчер, Осрик Чау, Катерина Кателиева, Дэниэл Кадмор, Алекс Пуччинелли, Джен Тейлор, Крис Шилдс, Макс Карвер, Тай Олссон, Даррен О’Харе, Джилл Тид, Дженна Берман, Дин Редман-Описание:-Эта история возвращает игроков к началу войны между людьми и Ковенантами и подводит к событиям, происходящим в игре Halo 4. В стенах военной академии Космического Командования Объединённых Наций (UNSC) группу курсантов знатного происхождения готовят стать следующим поколением солдат в надвигающейся войне между UNCS и повстанцами на колониальных планетах. Один из кадетов, Томас Ласки, ведет внутреннюю борьбу, преодолевая сомнения по поводу войны и опасения не оправдать высоких ожиданий командования. К тому моменту, как Ласки смирился со своей ролью будущего командира, ужасающее войско альянса Ковенант вторгается на планету и переворачивает привычный мир героя с ног на голову. Вдохновлённый подвигами Мастера Чифа, Ласки должен на собственном опыте узнать, что значит быть героем.-Качество: BDRip-AVC
Формат: MKV
Видео кодек: AVC
Аудио кодек: AC3
Видео: 23,976 fps / 1136x472 / 2 730 Kbps
Аудио: AC3, 5.1 ch, 448 kbps / Русский/ 48.0 KHz/6 ch
Автор рипа: OMEGA

MI

General
Unique ID : 176168522730174479852273932819621814702 (0x8488D2C4FF7BB4A3A47497FEDA1121AE)
Complete name : G:\Новая папка\Halo 4 Forward Unto Dawn.mkv
Format : Matroska
Format version : Version 2
File size : 2.03 GiB
Duration : 1h 31mn
Overall bit rate : 3 180 Kbps
Encoded date : UTC 2013-10-06 11:23:25
Writing application : mkvmerge v4.9.1 ('Ich will') built on Sep 21 2011 17:48:11
Writing library : libebml v1.2.1 + libmatroska v1.2.0
Video
ID : 1
Format : AVC
Format/Info : Advanced Video Codec
Format profile : High@L3.1
Format settings, CABAC : Yes
Format settings, ReFrames : 4 frames
Codec ID : V_MPEG4/ISO/AVC
Duration : 1h 31mn
Bit rate : 2 730 Kbps
Width : 1 136 pixels
Height : 472 pixels
Display aspect ratio : 2.40:1
Frame rate mode : Constant
Frame rate : 23.976 fps
Color space : YUV
Chroma subsampling : 4:2:0
Bit depth : 8 bits
Scan type : Progressive
Bits/(Pixel*Frame) : 0.212
Stream size : 1.70 GiB (84%)
Writing library : x264 core 118 r2085 8a62835
Encoding settings : cabac=1 / ref=3 / deblock=1:0:0 / analyse=0x3:0x113 / me=hex / subme=7 / psy=1 / psy_rd=1.00:0.00 / mixed_ref=1 / me_range=16 / chroma_me=1 / trellis=1 / 8x8dct=1 / cqm=0 / deadzone=21,11 / fast_pskip=1 / chroma_qp_offset=-2 / threads=18 / sliced_threads=0 / nr=0 / decimate=1 / interlaced=0 / bluray_compat=0 / constrained_intra=0 / bframes=3 / b_pyramid=2 / b_adapt=1 / b_bias=0 / direct=3 / weightb=1 / open_gop=0 / weightp=2 / keyint=250 / keyint_min=23 / scenecut=40 / intra_refresh=0 / rc_lookahead=40 / rc=2pass / mbtree=1 / bitrate=2730 / ratetol=1.0 / qcomp=0.60 / qpmin=0 / qpmax=69 / qpstep=4 / cplxblur=20.0 / qblur=0.5 / ip_ratio=1.40 / aq=1:1.00
Default : Yes
Forced : No
Audio
ID : 2
Format : AC-3
Format/Info : Audio Coding 3
Mode extension : CM (complete main)
Format settings, Endianness : Big
Codec ID : A_AC3
Duration : 1h 31mn
Bit rate mode : Constant
Bit rate : 448 Kbps
Channel(s) : 6 channels
Channel positions : Front: L C R, Side: L R, LFE
Sampling rate : 48.0 KHz
Bit depth : 16 bits
Compression mode : Lossy
Stream size : 293 MiB (14%)
Default : Yes
Forced : No

Рейтинг

Рейтинг:

Скриншоты





- -


Показать сообщения:    

Текущее время: 14-Дек 02:47

Часовой пояс: UTC ± 0


Вы не можете начинать темы
Вы не можете отвечать на сообщения
Вы не можете редактировать свои сообщения
Вы не можете удалять свои сообщения
Вы не можете голосовать в опросах
Вы не можете прикреплять файлы к сообщениям
Вы не можете скачивать файлы

!ВНИМАНИЕ!
Сайт не предоставляет электронные версии произведений, а занимается лишь коллекционированием и каталогизацией ссылок, присылаемых и публикуемых на форуме нашими читателями. Если вы являетесь правообладателем какого-либо представленного материала и не желаете, чтобы ссылка на него находилась в нашем каталоге, свяжитесь с нами, и мы незамедлительно удалим ее. Файлы для обмена на трекере предоставлены пользователями сайта, и администрация не несет ответственности за их содержание. Просьба не заливать файлы, защищенные авторскими правами, а также файлы нелегального содержания!