Важное объявление!
У Нас Все раздачи мультитрекерные, при нуле пиров в релизах, можете смело вставать на закачку!
 
Автор Сообщение

HUNTER

Стаж:
4 года 4 месяца
Сообщений:
56749

Репутация: 101

[+] [-]
Вне форума [Профиль] [ЛС]

GP3 2016. Этап 8. Малайзия. Гонка 2. Sky Sports F1
Вид спорта: Автогонки
Описание: 2 гонка 8 этапа гоночной серии GP3 в Малайзии
Автор рипа: Ales
Формат видео: TS
Язык комментариев: Английский / English
Дата/Год выпуска: 02.10.2016
Качество: HDTVRip
Видео: MPEG 2, 704x576I, 25 fps, 3 616 Kbps
Аудио: MP2, 2.0, 48.0 KHz, 192 Kbps

Продолжительность

00:44:39

MediaInfo

GeneralID : 1 (0x1)Complete name : K:\GP3_2016\GP3_2016_R08_MAL_HDTVRIP_RACE2_SDTV.[0].tsFormat : MPEG-TSFile size : 1.25 GiBDuration : 44mn 39sOverall bit rate mode : VariableOverall bit rate : 4 008 Kbps
VideoID : 256 (0x100)Menu ID : 1 (0x1)Format : MPEG VideoFormat version : Version 2Format profile : Main@MainFormat settings, BVOP : YesFormat settings, Matrix : CustomFormat settings, GOP : VariableFormat settings, picture structure : FrameCodec ID : 2Duration : 44mn 39sBit rate mode : VariableBit rate : 3 616 KbpsMaximum bit rate : 15.0 MbpsWidth : 704 pixelsHeight : 576 pixelsDisplay aspect ratio : 16:9Frame rate : 25.000 fpsStandard : PALColor space : YUVChroma subsampling : 4:2:0Bit depth : 8 bitsScan type : InterlacedScan order : Top Field FirstCompression mode : LossyBits/(Pixel*Frame) : 0.357Time code of first frame : 00:00:00:00Time code source : Group of pictures headerStream size : 1.13 GiB (90%)
AudioID : 257 (0x101)Menu ID : 1 (0x1)Format : MPEG AudioFormat version : Version 1Format profile : Layer 2Codec ID : 3Duration : 44mn 39sBit rate mode : ConstantBit rate : 192 KbpsChannel(s) : 2 channelsSampling rate : 48.0 KHzCompression mode : LossyDelay relative to video : -2msStream size : 61.3 MiB (5%)Language : English
MenuID : 4096 (0x1000)Menu ID : 1 (0x1)Duration : 44mn 39sList : 256 (0x100) (MPEG Video) / 257 (0x101) (MPEG Audio, English)Language : / EnglishService name : Service01Service provider : FFmpegService type : digital television

Скриншоты


_________________
Показать сообщения:    

Текущее время: Сегодня 21:45

Часовой пояс: GMT



Вы не можете начинать темы
Вы не можете отвечать на сообщения
Вы не можете редактировать свои сообщения
Вы не можете удалять свои сообщения
Вы не можете голосовать в опросах
Вы не можете прикреплять файлы к сообщениям
Вы не можете скачивать файлы