Важное объявление!
У Нас Все раздачи мультитрекерные, при нуле пиров в релизах, можете смело вставать на закачку!
 
Автор Сообщение

HUNTER

Стаж:
4 года 4 месяца
Сообщений:
56734

Репутация: 101

[+] [-]
Вне форума [Профиль] [ЛС]

GP3 2015. Этап 09. Абу-Даби. Гонка 1. Eurosport 2

Вид спорта: Автогонки
Дата/Год выпуска: 28.11.2015
Язык комментариев: Русский
Описание: 1 гонка 9 этапа гоночной серии GP3 в Абу-Даби на трассе "Яс Марина".
Отсутствует последний круг.
Автор рипа/записи: Ales
Качество: DVB-S2 Remux
Формат видео: MKV
Видео: H264, 720x576i, 25 fps, 2 363 Kbps
Аудио: MP2 2.0 48.0 KHz 192 Kbps

Продолжительность

00:46:24

MediaInfo

GeneralUnique ID : 170752057101387523852783706380718976100 (0x8075A66555674A88ACE4C45E23A62C64)Complete name : F:\GP32015\GP3_2015_R09_ABU_RACE1_SDTVREMUX.mkvFormat : MatroskaFormat version : Version 4 / Version 2File size : 909 MiBDuration : 46mn 24sOverall bit rate : 2 737 KbpsEncoded date : UTC 2015-11-29 17:46:20Writing application : mkvmerge v8.3.0 ('Over the Horizon') 64bitWriting library : libebml v1.3.1 + libmatroska v1.4.2DURATION : 00:46:23.496000000NUMBER_OF_FRAMES : 115978NUMBER_OF_BYTES : 66803328_STATISTICS_WRITING_APP : mkvmerge v8.3.0 ('Over the Horizon') 64bit_STATISTICS_WRITING_DATE_UTC : 2015-11-29 17:46:20_STATISTICS_TAGS : BPS DURATION NUMBER_OF_FRAMES NUMBER_OF_BYTES
VideoID : 1Format : AVCFormat/Info : Advanced Video CodecFormat profile : High@L3Format settings, CABAC : YesFormat settings, ReFrames : 4 framesCodec ID : V_MPEG4/ISO/AVCDuration : 46mn 24sBit rate : 2 363 KbpsWidth : 720 pixelsHeight : 576 pixelsDisplay aspect ratio : 16:9Frame rate mode : ConstantFrame rate : 22.710 fpsOriginal frame rate : 25.000 fpsColor space : YUVChroma subsampling : 4:2:0Bit depth : 8 bitsScan type : InterlacedScan order : Top Field FirstBits/(Pixel*Frame) : 0.251Stream size : 784 MiB (86%)Default : YesForced : NoColor range : LimitedColor primaries : BT.601 PALTransfer characteristics : BT.470 System B, BT.470 System GMatrix coefficients : BT.601
Audio #1ID : 2Format : MPEG AudioFormat version : Version 1Format profile : Layer 2Codec ID : A_MPEG/L2Codec ID/Hint : MP2Duration : 46mn 24sBit rate mode : ConstantBit rate : 128 KbpsChannel(s) : 2 channelsSampling rate : 48.0 KHzCompression mode : LossyDelay relative to video : -1msStream size : 42.5 MiB (5%)Default : YesForced : No
Audio #2ID : 3Format : MPEG AudioFormat version : Version 1Format profile : Layer 2Codec ID : A_MPEG/L2Codec ID/Hint : MP2Duration : 46mn 24sBit rate mode : ConstantBit rate : 192 KbpsChannel(s) : 2 channelsSampling rate : 48.0 KHzCompression mode : LossyDelay relative to video : -1msStream size : 63.7 MiB (7%)Default : NoForced : No

Скриншоты


_________________
Показать сообщения:    

Текущее время: Сегодня 15:57

Часовой пояс: GMT



Вы не можете начинать темы
Вы не можете отвечать на сообщения
Вы не можете редактировать свои сообщения
Вы не можете удалять свои сообщения
Вы не можете голосовать в опросах
Вы не можете прикреплять файлы к сообщениям
Вы не можете скачивать файлы