Важное объявление!
У Нас Все раздачи мультитрекерные, при нуле пиров в релизах, можете смело вставать на закачку!
 
Автор Сообщение

HUNTER

Стаж:
4 года 4 месяца
Сообщений:
56720

Репутация: 101

[+] [-]
Вне форума [Профиль] [ЛС]

GP3 2015. Этап 07. Россия. Гонка 2. Eurosport 2

Вид спорта: Автогонки
Дата/Год выпуска: 11.10.2015
Язык комментариев: Русский, Английский
Описание: 2 гонка 7 этапа гоночной серии GP3 в России на трассе "Сочи Автодром".
Автор рипа/записи: Ales
Качество: DVB-S Remux
Формат видео: MKV
Видео: H264, 720x576i, 25 fps, 2 851 Kbps
Аудио: MP2 2.0 48.0 KHz 192 Kbps

Продолжительность

00:36:00

MediaInfo

GeneralUnique ID : 224914406542270526281468814082717124728 (0xA934F06579940772B80C547749920878)Complete name : F:\GP32015\GP3_2015_R07_RUS_RACE2_SDTVREMUX.mkvFormat : MatroskaFormat version : Version 4 / Version 2File size : 833 MiBDuration : 36mn 0sOverall bit rate : 3 236 KbpsEncoded date : UTC 2015-10-11 13:21:59Writing application : mkvmerge v8.3.0 ('Over the Horizon') 64bitWriting library : libebml v1.3.1 + libmatroska v1.4.2DURATION : 00:36:00.768000000NUMBER_OF_FRAMES : 88835NUMBER_OF_BYTES : 51168772_STATISTICS_WRITING_APP : mkvmerge v8.3.0 ('Over the Horizon') 64bit_STATISTICS_WRITING_DATE_UTC : 2015-10-11 13:21:59_STATISTICS_TAGS : BPS DURATION NUMBER_OF_FRAMES NUMBER_OF_BYTES
VideoID : 1Format : AVCFormat/Info : Advanced Video CodecFormat profile : High@L3Format settings, CABAC : YesFormat settings, ReFrames : 4 framesCodec ID : V_MPEG4/ISO/AVCBit rate : 2 851 KbpsWidth : 720 pixelsHeight : 576 pixelsDisplay aspect ratio : 16:9Frame rate mode : VariableOriginal frame rate : 25.000 fpsColor space : YUVChroma subsampling : 4:2:0Bit depth : 8 bitsScan type : InterlacedScan order : Top Field FirstDefault : YesForced : NoColor range : LimitedColor primaries : BT.601 PALTransfer characteristics : BT.470 System B, BT.470 System GMatrix coefficients : BT.601
Audio #1ID : 2Format : MPEG AudioFormat version : Version 1Format profile : Layer 2Codec ID : A_MPEG/L2Codec ID/Hint : MP2Duration : 36mn 0sBit rate mode : ConstantBit rate : 128 KbpsChannel(s) : 2 channelsSampling rate : 48.0 KHzCompression mode : LossyDelay relative to video : -7msStream size : 33.0 MiB (4%)Default : YesForced : No
Audio #2ID : 3Format : MPEG AudioFormat version : Version 1Format profile : Layer 2Codec ID : A_MPEG/L2Codec ID/Hint : MP2Duration : 36mn 0sBit rate mode : ConstantBit rate : 192 KbpsChannel(s) : 2 channelsSampling rate : 48.0 KHzCompression mode : LossyDelay relative to video : -7msStream size : 49.5 MiB (6%)Default : NoForced : No

Скриншоты


_________________
Показать сообщения:    

Текущее время: Сегодня 06:47

Часовой пояс: GMT



Вы не можете начинать темы
Вы не можете отвечать на сообщения
Вы не можете редактировать свои сообщения
Вы не можете удалять свои сообщения
Вы не можете голосовать в опросах
Вы не можете прикреплять файлы к сообщениям
Вы не можете скачивать файлы