Важное объявление!
У Нас Все раздачи мультитрекерные, при нуле пиров в релизах, можете смело вставать на закачку!
 
Автор Сообщение

HUNTER

Стаж:
4 года 4 месяца
Сообщений:
56722

Репутация: 101

[+] [-]
Вне форума [Профиль] [ЛС]

GP3 2015. Этап 05. Бельгия. Гонка 2. Eurosport HD

Вид спорта: Автогонки
Дата/Год выпуска: 23.08.2015
Язык комментариев: Русский (Александр Кабановский), Английский
Описание: 2 Гонка 5 этапа гоночной серии GP3 в Бельгии на трассе "Спа Франкоршам".
Автор рипа/записи: Ales
Качество: DVB-S2 Remux
Формат видео: MKV
Видео: H264, 1920x1080p, 25 fps, 9 313 Kbps
Аудио: MP2 1.0 48.0 KHz 192 Kbps

Продолжительность

00:40:37

MediaInfo

GeneralUnique ID : 253976880793596154125512186535878149851 (0xBF122B0168A22803B852D9C2F5D546DB)Complete name : F:\GP32015\GP3_2015_R05_BEL_RACE2_HDTVREMUX.mkvFormat : MatroskaFormat version : Version 4 / Version 2File size : 2.81 GiBDuration : 40mn 37sOverall bit rate : 9 894 KbpsEncoded date : UTC 2015-08-23 08:27:44Writing application : mkvmerge v8.3.0 ('Over the Horizon') 64bitWriting library : libebml v1.3.1 + libmatroska v1.4.2DURATION : 00:40:37.552000000NUMBER_OF_FRAMES : 101564NUMBER_OF_BYTES : 58500864_STATISTICS_WRITING_APP : mkvmerge v8.3.0 ('Over the Horizon') 64bit_STATISTICS_WRITING_DATE_UTC : 2015-08-23 08:27:44_STATISTICS_TAGS : BPS DURATION NUMBER_OF_FRAMES NUMBER_OF_BYTES
VideoID : 1Format : AVCFormat/Info : Advanced Video CodecFormat profile : Main@L4Format settings, CABAC : YesFormat settings, ReFrames : 4 framesCodec ID : V_MPEG4/ISO/AVCDuration : 40mn 37sBit rate : 9 313 KbpsWidth : 1 920 pixelsHeight : 1 080 pixelsDisplay aspect ratio : 16:9Frame rate mode : ConstantFrame rate : 23.438 fpsOriginal frame rate : 25.000 fpsStandard : ComponentColor space : YUVChroma subsampling : 4:2:0Bit depth : 8 bitsScan type : InterlacedScan order : Top Field FirstBits/(Pixel*Frame) : 0.192Stream size : 2.64 GiB (94%)Default : YesForced : NoColor range : LimitedColor primaries : BT.709Transfer characteristics : BT.709Matrix coefficients : BT.709
Audio #1ID : 2Format : MPEG AudioFormat version : Version 1Format profile : Layer 2Codec ID : A_MPEG/L2Codec ID/Hint : MP2Duration : 40mn 37sBit rate mode : ConstantBit rate : 192 KbpsChannel(s) : 2 channelsSampling rate : 48.0 KHzCompression mode : LossyDelay relative to video : -23msStream size : 55.8 MiB (2%)Language : RussianDefault : YesForced : No
Audio #2ID : 3Format : MPEG AudioFormat version : Version 1Format profile : Layer 2Codec ID : A_MPEG/L2Codec ID/Hint : MP2Duration : 40mn 37sBit rate mode : ConstantBit rate : 192 KbpsChannel(s) : 2 channelsSampling rate : 48.0 KHzCompression mode : LossyDelay relative to video : -23msStream size : 55.8 MiB (2%)Language : EnglishDefault : NoForced : No

Скриншоты


_________________
Показать сообщения:    

Текущее время: Сегодня 11:47

Часовой пояс: GMT



Вы не можете начинать темы
Вы не можете отвечать на сообщения
Вы не можете редактировать свои сообщения
Вы не можете удалять свои сообщения
Вы не можете голосовать в опросах
Вы не можете прикреплять файлы к сообщениям
Вы не можете скачивать файлы