Важное объявление!
У Нас Все раздачи мультитрекерные, при нуле пиров в релизах, можете смело вставать на закачку!
 
Автор Сообщение

HUNTER

Стаж:
4 года 4 месяца
Сообщений:
56734

Репутация: 101

[+] [-]
Вне форума [Профиль] [ЛС]

GP3 2015. Этап 03 Великобритания. Гонка 2. Eurosport HD DVB-S2 Remux

Вид спорта: Автогонки
Дата/Год выпуска: 05.07.2015
Язык комментариев: Русский (Александр Кабановский), Английский
Описание: 2 гонка 3 этапа гоночной серии GP3 в Великобритании на трассе "Сильверстоун"
Автор рипа/записи: Ales
Качество: DVB-S2 Remux
Формат видео: MKV
Видео: H264, 1920x1080, 25 fps, 8 943 Kbps
Аудио: MP2 2.0 48.0 KHz 192 Kbps

Продолжительность

00:49:19

MediaInfo

GeneralUnique ID : 175993217716357247970358914064411050764 (0x84670F90A5D2C032B26208175464C30C)Complete name : F:\GP32015\GP3_2015_R03_GBR_RACE2_HDTVREMUX.mkvFormat : MatroskaFormat version : Version 4 / Version 2File size : 3.08 GiBDuration : 49mn 19sOverall bit rate : 8 943 KbpsEncoded date : UTC 2015-07-05 09:05:29Writing application : mkvmerge v8.0.0 ('Til The Day That I Die') 64bitWriting library : libebml v1.3.1 + libmatroska v1.4.2DURATION : 00:49:19.272000000NUMBER_OF_FRAMES : 122683NUMBER_OF_BYTES : 70665408_STATISTICS_WRITING_APP : mkvmerge v8.0.0 ('Til The Day That I Die') 64bit_STATISTICS_WRITING_DATE_UTC : 2015-07-05 09:05:29_STATISTICS_TAGS : BPS DURATION NUMBER_OF_FRAMES NUMBER_OF_BYTES
VideoID : 1Format : AVCFormat/Info : Advanced Video CodecFormat profile : Main@L4Format settings, CABAC : YesFormat settings, ReFrames : 4 framesCodec ID : V_MPEG4/ISO/AVCBit rate : 8 381 KbpsWidth : 1 920 pixelsHeight : 1 080 pixelsDisplay aspect ratio : 16:9Frame rate mode : VariableOriginal frame rate : 25.000 fpsStandard : ComponentColor space : YUVChroma subsampling : 4:2:0Bit depth : 8 bitsScan type : InterlacedScan order : Top Field FirstDefault : YesForced : NoColor range : LimitedColor primaries : BT.709Transfer characteristics : BT.709Matrix coefficients : BT.709
Audio #1ID : 2Format : MPEG AudioFormat version : Version 1Format profile : Layer 2Codec ID : A_MPEG/L2Codec ID/Hint : MP2Duration : 49mn 19sBit rate mode : ConstantBit rate : 192 KbpsChannel(s) : 2 channelsSampling rate : 48.0 KHzCompression mode : LossyDelay relative to video : -23msStream size : 67.7 MiB (2%)Language : RussianDefault : YesForced : No
Audio #2ID : 3Format : MPEG AudioFormat version : Version 1Format profile : Layer 2Codec ID : A_MPEG/L2Codec ID/Hint : MP2Duration : 49mn 19sBit rate mode : ConstantBit rate : 192 KbpsChannel(s) : 2 channelsSampling rate : 48.0 KHzCompression mode : LossyDelay relative to video : -23msStream size : 67.7 MiB (2%)Language : EnglishDefault : NoForced : No

Скриншоты


_________________
Показать сообщения:    

Текущее время: Сегодня 08:42

Часовой пояс: GMT



Вы не можете начинать темы
Вы не можете отвечать на сообщения
Вы не можете редактировать свои сообщения
Вы не можете удалять свои сообщения
Вы не можете голосовать в опросах
Вы не можете прикреплять файлы к сообщениям
Вы не можете скачивать файлы