Важное объявление!
У Нас Все раздачи мультитрекерные, при нуле пиров в релизах, можете смело вставать на закачку!
 
Автор Сообщение

HUNTER

Стаж:
4 года 4 месяца
Сообщений:
56798

Репутация: 101

[+] [-]
Вне форума [Профиль] [ЛС]

GP3 2015. Этап 01 Испания. Гонка 2. Eurosport HD HDTVRemux

Вид спорта: Автогонки
Дата/Год выпуска: 10.05.2015
Язык комментариев: Русский (Александр Кабановский), Английский
Описание: 2 гонка 1 этапа гоночной серии GP3 в Испании на трассе "Барселона-Каталунья"
Автор рипа/записи: Ales
Качество: HDTVRemux
Формат видео: MKV
Видео: AVC H264, 1920x1080, 25 fps, 9 314 Kbps
Аудио: MP2 2.0 48.0 KHz 192 Kbps

Продолжительность

00:38:24

MediaInfo

GeneralUnique ID : 178486154907816959947951763038756732048 (0x86472EDBAE129EA888DD4483C3BCFC90)Complete name : H:\GP32015\GP3_2015_R01_ESP_RACE2_HDTVREMUX.mkvFormat : MatroskaFormat version : Version 4 / Version 2File size : 2.65 GiBDuration : 38mn 24sOverall bit rate : 9 895 KbpsEncoded date : UTC 2015-05-31 16:25:18Writing application : mkvmerge v7.9.0 ('Birds') 64bitWriting library : libebml v1.3.1 + libmatroska v1.4.2DURATION : 00:38:24.088000000NUMBER_OF_FRAMES : 96003NUMBER_OF_BYTES : 55297728_STATISTICS_WRITING_APP : mkvmerge v7.9.0 ('Birds') 64bit_STATISTICS_WRITING_DATE_UTC : 2015-05-31 16:25:18_STATISTICS_TAGS : BPS DURATION NUMBER_OF_FRAMES NUMBER_OF_BYTES
VideoID : 1Format : AVCFormat/Info : Advanced Video CodecFormat profile : Main@L4.0Format settings, CABAC : YesFormat settings, ReFrames : 4 framesFormat settings, GOP : M=4, N=28Codec ID : V_MPEG4/ISO/AVCBit rate : 9 314 KbpsWidth : 1 920 pixelsHeight : 1 080 pixelsDisplay aspect ratio : 16:9Frame rate mode : VariableOriginal frame rate : 25.000 fpsStandard : ComponentColor space : YUVChroma subsampling : 4:2:0Bit depth : 8 bitsScan type : InterlacedScan order : Top Field FirstDefault : YesForced : NoColor primaries : BT.709Transfer characteristics : BT.709Matrix coefficients : BT.709Color range : Limited
Audio #1ID : 2Format : MPEG AudioFormat version : Version 1Format profile : Layer 2Codec ID : A_MPEG/L2Codec ID/Hint : MP2Duration : 38mn 24sBit rate mode : ConstantBit rate : 192 KbpsChannel(s) : 2 channelsSampling rate : 48.0 KHzCompression mode : LossyDelay relative to video : 57msStream size : 52.7 MiB (2%)Language : RussianDefault : YesForced : No
Audio #2ID : 3Format : MPEG AudioFormat version : Version 1Format profile : Layer 2Codec ID : A_MPEG/L2Codec ID/Hint : MP2Duration : 38mn 24sBit rate mode : ConstantBit rate : 192 KbpsChannel(s) : 2 channelsSampling rate : 48.0 KHzCompression mode : LossyDelay relative to video : 33msStream size : 52.7 MiB (2%)Language : EnglishDefault : NoForced : No

Скриншоты


_________________
Показать сообщения:    

Текущее время: Сегодня 23:56

Часовой пояс: GMT



Вы не можете начинать темы
Вы не можете отвечать на сообщения
Вы не можете редактировать свои сообщения
Вы не можете удалять свои сообщения
Вы не можете голосовать в опросах
Вы не можете прикреплять файлы к сообщениям
Вы не можете скачивать файлы