Важное объявление!
У Нас Все раздачи мультитрекерные, при нуле пиров в релизах, можете смело вставать на закачку!
 
Автор Сообщение

HUNTER

Стаж:
4 года 7 месяцев
Сообщений:
61476

Репутация: 101

[+] [-]
Вне форума [Профиль] [ЛС]

GP3 2015. Этап 05. Бельгия. Гонка 1. Eurosport 2

Вид спорта: Автогонки
Дата/Год выпуска: 22.08.2015
Язык комментариев: Русский (Александр Кабановский), Английский
Описание: Квалификация 5 этапа гоночной серии GP3 в Бельгии на трассе "Спа Франкоршам".
Автор рипа/записи: Ales
Качество: HDTVRip
Формат видео: MKV
Видео: MPEG 2, 720x576, 25 fps, 4 099 Kbps
Аудио: MP2 1.0 48.0 KHz 192 Kbps

Продолжительность

00:58:37

MediaInfo

GeneralUnique ID : 195038024683305991819071790600134913454 (0x92BAF50B445D94F0BB8B8322BE8CEDAE)Complete name : F:\GP32015\GP3_2015_R05_BEL_RACE1_SDTVREMUX.mkvFormat : MatroskaFormat version : Version 4 / Version 2File size : 1.85 GiBDuration : 58mn 37sOverall bit rate mode : VariableOverall bit rate : 4 509 KbpsEncoded date : UTC 2015-08-22 17:25:00Writing application : mkvmerge v8.3.0 ('Over the Horizon') 64bitWriting library : libebml v1.3.1 + libmatroska v1.4.2DURATION : 00:58:37.633000000NUMBER_OF_FRAMES : 146568NUMBER_OF_BYTES : 84423168_STATISTICS_WRITING_APP : mkvmerge v8.3.0 ('Over the Horizon') 64bit_STATISTICS_WRITING_DATE_UTC : 2015-08-22 17:25:00_STATISTICS_TAGS : BPS DURATION NUMBER_OF_FRAMES NUMBER_OF_BYTES
VideoID : 1Format : MPEG VideoFormat version : Version 2Format profile : Main@MainFormat settings, BVOP : YesFormat settings, Matrix : CustomFormat settings, GOP : M=3, N=24Format settings, picture structure : FrameCodec ID : V_MPEG2Codec ID/Info : MPEG 1 or 2 VideoDuration : 58mn 37sBit rate mode : VariableBit rate : 4 099 KbpsWidth : 720 pixelsHeight : 576 pixelsDisplay aspect ratio : 16:9Frame rate mode : ConstantFrame rate : 25.000 fpsStandard : PALColor space : YUVChroma subsampling : 4:2:0Bit depth : 8 bitsScan type : InterlacedScan order : Top Field FirstCompression mode : LossyBits/(Pixel*Frame) : 0.395Stream size : 1.68 GiB (91%)Default : YesForced : No
Audio #1ID : 2Format : MPEG AudioFormat version : Version 1Format profile : Layer 2Codec ID : A_MPEG/L2Codec ID/Hint : MP2Duration : 58mn 37sBit rate mode : ConstantBit rate : 128 KbpsChannel(s) : 1 channelSampling rate : 48.0 KHzCompression mode : LossyStream size : 53.7 MiB (3%)Language : RussianDefault : YesForced : No
Audio #2ID : 3Format : MPEG AudioFormat version : Version 1Format profile : Layer 2Codec ID : A_MPEG/L2Codec ID/Hint : MP2Duration : 58mn 37sBit rate mode : ConstantBit rate : 192 KbpsChannel(s) : 1 channelSampling rate : 48.0 KHzCompression mode : LossyDelay relative to video : -24msStream size : 80.5 MiB (4%)Language : EnglishDefault : NoForced : No

Скриншоты


_________________
Показать сообщения:    

Текущее время: Сегодня 17:04

Часовой пояс: GMT



Вы не можете начинать темы
Вы не можете отвечать на сообщения
Вы не можете редактировать свои сообщения
Вы не можете удалять свои сообщения
Вы не можете голосовать в опросах
Вы не можете прикреплять файлы к сообщениям
Вы не можете скачивать файлы
Наши партнеры: интернет магазин Ивановского трикотажа textilla.ru