GP3 2015. Этап 04 Венгрия. 2 гонка. Eurosport HD [26.07.2015, Автогонки, DVB S2 Remux, Рус] :: Ивановский Торрент трекер
Важное объявление!
У Нас Все раздачи мультитрекерные, при нуле пиров в релизах, можете смело вставать на закачку!
Статистика раздачи
Размер:     |    Зарегистрирован:     |    Скачан:     |   
Нет
 
     
 
 
Автор Сообщение

HUNTER

Стаж:
4 года 11 месяцев
Сообщений:
66077

Репутация: 101

[+] [-]
Вне форума [Профиль] [ЛС]

GP3 2015. Этап 04 Венгрия. 2 гонка. Eurosport HD

Вид спорта: Автогонки
Дата/Год выпуска: 26.07.2015
Язык комментариев: Русский (Александр Кабановский), Английский
Описание: 2 гонка 4 этапа гоночной серии GP3 в Венгрии на трассе "Хунгароринг"
Автор рипа/записи: Ales
Качество: HDTVRip
Формат видео: MKV
Видео: H264, 1920x1080p, 25 fps, 9 146 Kbps
Аудио: AAC 2.0 48.0 KHz 192 Kbps

Продолжительность

00:46:23

MediaInfo

GeneralUnique ID : 201251499919779921573064353450771398637 (0x9767A10675FB27CEA91595D178C0BFED)Complete name : F:\GP32015\GP3_2015_R04_HUN_RACE2_HDTVREMUX.mkvFormat : MatroskaFormat version : Version 4 / Version 2File size : 3.15 GiBDuration : 46mn 23sOverall bit rate : 9 723 KbpsEncoded date : UTC 2015-07-26 08:30:45Writing application : mkvmerge v8.0.0 ('Til The Day That I Die') 64bitWriting library : libebml v1.3.1 + libmatroska v1.4.2DURATION : 00:46:23.858000000NUMBER_OF_FRAMES : 115993NUMBER_OF_BYTES : 66811968_STATISTICS_WRITING_APP : mkvmerge v8.0.0 ('Til The Day That I Die') 64bit_STATISTICS_WRITING_DATE_UTC : 2015-07-26 08:30:45_STATISTICS_TAGS : BPS DURATION NUMBER_OF_FRAMES NUMBER_OF_BYTES
VideoID : 1Format : AVCFormat/Info : Advanced Video CodecFormat profile : Main@L4Format settings, CABAC : YesFormat settings, ReFrames : 4 framesCodec ID : V_MPEG4/ISO/AVCBit rate : 9 146 KbpsWidth : 1 920 pixelsHeight : 1 080 pixelsDisplay aspect ratio : 16:9Frame rate mode : VariableOriginal frame rate : 25.000 fpsStandard : ComponentColor space : YUVChroma subsampling : 4:2:0Bit depth : 8 bitsScan type : InterlacedScan order : Top Field FirstDefault : YesForced : NoColor range : LimitedColor primaries : BT.709Transfer characteristics : BT.709Matrix coefficients : BT.709
Audio #1ID : 2Format : MPEG AudioFormat version : Version 1Format profile : Layer 2Codec ID : A_MPEG/L2Codec ID/Hint : MP2Duration : 46mn 23sBit rate mode : ConstantBit rate : 192 KbpsChannel(s) : 2 channelsSampling rate : 48.0 KHzCompression mode : LossyDelay relative to video : -15msStream size : 63.7 MiB (2%)Language : RussianDefault : YesForced : No
Audio #2ID : 3Format : MPEG AudioFormat version : Version 1Format profile : Layer 2Codec ID : A_MPEG/L2Codec ID/Hint : MP2Duration : 46mn 23sBit rate mode : ConstantBit rate : 192 KbpsChannel(s) : 2 channelsSampling rate : 48.0 KHzCompression mode : LossyDelay relative to video : -15msStream size : 63.7 MiB (2%)Language : EnglishDefault : NoForced : No

Скриншоты


_________________
Показать сообщения:    

Текущее время: Сегодня 10:43

Часовой пояс: GMT



Вы не можете начинать темы
Вы не можете отвечать на сообщения
Вы не можете редактировать свои сообщения
Вы не можете удалять свои сообщения
Вы не можете голосовать в опросах
Вы не можете прикреплять файлы к сообщениям
Вы не можете скачивать файлы