Важное объявление!
У Нас Все раздачи мультитрекерные, при нуле пиров в релизах, можете смело вставать на закачку!
 
Автор Сообщение

HUNTER

Стаж:
4 года 8 месяцев
Сообщений:
62034

Репутация: 101

[+] [-]
Вне форума [Профиль] [ЛС]

GP3 2015. Этап 03 Великобритания. Гонка 1. Eurosport 2 DVB-S Remux

Вид спорта: Автогонки
Дата/Год выпуска: 04.07.2015
Язык комментариев: Русский (Александр Кабановский), Английский
Описание: 1 гонка 3 этапа гоночной серии GP3 в Великобритании на трассе "Сильверстоун"
Автор рипа/записи: Ales
Качество: DVB-S Remux
Формат видео: MKV
Видео: MPEG 2, 720x576, 25 fps, 4 108 Kbps
Аудио: MP2 1.0 48.0 KHz 192 Kbps

Продолжительность

00:47:13

MediaInfo

GeneralUnique ID : 206378455218992339467546211159073467549 (0x9B430B7008E1ACB3B9A782911639AC9D)Complete name : F:\GP32015\GP3_2015_R03_GBR_RACE1_SDTVREMUX.mkvFormat : MatroskaFormat version : Version 4 / Version 2File size : 1.49 GiBDuration : 47mn 13sOverall bit rate mode : VariableOverall bit rate : 4 518 KbpsEncoded date : UTC 2015-07-04 17:14:51Writing application : mkvmerge v8.0.0 ('Til The Day That I Die') 64bitWriting library : libebml v1.3.1 + libmatroska v1.4.2DURATION : 00:47:13.466000000NUMBER_OF_FRAMES : 117874NUMBER_OF_BYTES : 67895424_STATISTICS_WRITING_APP : mkvmerge v8.0.0 ('Til The Day That I Die') 64bit_STATISTICS_WRITING_DATE_UTC : 2015-07-04 17:14:51_STATISTICS_TAGS : BPS DURATION NUMBER_OF_FRAMES NUMBER_OF_BYTES
VideoID : 1Format : MPEG VideoFormat version : Version 2Format profile : Main@MainFormat settings, BVOP : YesFormat settings, Matrix : CustomFormat settings, GOP : VariableFormat settings, picture structure : FrameCodec ID : V_MPEG2Codec ID/Info : MPEG 1 or 2 VideoBit rate mode : VariableBit rate : 4 108 KbpsWidth : 720 pixelsHeight : 576 pixelsDisplay aspect ratio : 16:9Frame rate mode : VariableOriginal frame rate : 25.000 fpsColor space : YUVChroma subsampling : 4:2:0Bit depth : 8 bitsScan type : InterlacedScan order : Top Field FirstCompression mode : LossyDefault : YesForced : No
Audio #1ID : 2Format : MPEG AudioFormat version : Version 1Format profile : Layer 2Codec ID : A_MPEG/L2Codec ID/Hint : MP2Duration : 47mn 13sBit rate mode : ConstantBit rate : 128 KbpsChannel(s) : 1 channelSampling rate : 48.0 KHzCompression mode : LossyDelay relative to video : -36msStream size : 43.2 MiB (3%)Language : RussianDefault : YesForced : No
Audio #2ID : 3Format : MPEG AudioFormat version : Version 1Format profile : Layer 2Codec ID : A_MPEG/L2Codec ID/Hint : MP2Duration : 47mn 13sBit rate mode : ConstantBit rate : 192 KbpsChannel(s) : 1 channelSampling rate : 48.0 KHzCompression mode : LossyDelay relative to video : -12msStream size : 64.9 MiB (4%)Language : EnglishDefault : NoForced : No

Скриншоты


_________________
Показать сообщения:    

Текущее время: Сегодня 03:01

Часовой пояс: GMT



Вы не можете начинать темы
Вы не можете отвечать на сообщения
Вы не можете редактировать свои сообщения
Вы не можете удалять свои сообщения
Вы не можете голосовать в опросах
Вы не можете прикреплять файлы к сообщениям
Вы не можете скачивать файлы
Наши партнеры: интернет магазин Ивановского трикотажа textilla.ru