Важное объявление!
У Нас Все раздачи мультитрекерные, при нуле пиров в релизах, можете смело вставать на закачку!
 
Автор Сообщение

HUNTER

Стаж:
4 года 9 месяцев
Сообщений:
65047

Репутация: 101

[+] [-]
Вне форума [Профиль] [ЛС]

GP3 2015. Этап 02 Австрия. Гонка 2. Eurosport HD HDTVRemux

Вид спорта: Автогонки
Дата/Год выпуска: 21.06.2015
Язык комментариев: Русский (Александр Кабановский), Английский
Описание: 2 гонка 2 этапа гоночной серии GP3 в Австрии на трассе "Ред Булл Ринг"
Автор рипа/записи: Ales
Качество: HDTVRemux
Формат видео: MKV
Видео: AVC H264, 1920x1080, 25 fps, 9 221 Kbps
Аудио: MP2 2.0 48.0 KHz 192 Kbps

Продолжительность

00:38:47

MediaInfo

GeneralUnique ID : 232569334017368444925889487910688638536 (0xAEF73975C0E086E5A00EA3D90E6DC648)Complete name : F:\GP32015\GP3_2015_R02_AUT_RACE2_HDTVREMUX.mkvFormat : MatroskaFormat version : Version 4 / Version 2File size : 2.66 GiBDuration : 38mn 47sOverall bit rate : 9 800 KbpsEncoded date : UTC 2015-06-21 09:40:08Writing application : mkvmerge v8.0.0 ('Til The Day That I Die') 64bitWriting library : libebml v1.3.1 + libmatroska v1.4.2DURATION : 00:38:47.911000000NUMBER_OF_FRAMES : 96995NUMBER_OF_BYTES : 55869120_STATISTICS_WRITING_APP : mkvmerge v8.0.0 ('Til The Day That I Die') 64bit_STATISTICS_WRITING_DATE_UTC : 2015-06-21 09:40:08_STATISTICS_TAGS : BPS DURATION NUMBER_OF_FRAMES NUMBER_OF_BYTES
VideoID : 1Format : AVCFormat/Info : Advanced Video CodecFormat profile : Main@L4Format settings, CABAC : YesFormat settings, ReFrames : 4 framesCodec ID : V_MPEG4/ISO/AVCBit rate : 9 221 KbpsWidth : 1 920 pixelsHeight : 1 080 pixelsDisplay aspect ratio : 16:9Frame rate mode : VariableOriginal frame rate : 25.000 fpsStandard : ComponentColor space : YUVChroma subsampling : 4:2:0Bit depth : 8 bitsScan type : InterlacedScan order : Top Field FirstDefault : YesForced : NoColor range : LimitedColor primaries : BT.709Transfer characteristics : BT.709Matrix coefficients : BT.709
Audio #1ID : 2Format : MPEG AudioFormat version : Version 1Format profile : Layer 2Codec ID : A_MPEG/L2Codec ID/Hint : MP2Duration : 38mn 47sBit rate mode : ConstantBit rate : 192 KbpsChannel(s) : 2 channelsSampling rate : 48.0 KHzCompression mode : LossyDelay relative to video : -23msStream size : 53.3 MiB (2%)Language : RussianDefault : YesForced : No
Audio #2ID : 3Format : MPEG AudioFormat version : Version 1Format profile : Layer 2Codec ID : A_MPEG/L2Codec ID/Hint : MP2Duration : 38mn 47sBit rate mode : ConstantBit rate : 192 KbpsChannel(s) : 2 channelsSampling rate : 48.0 KHzCompression mode : LossyDelay relative to video : -23msStream size : 53.3 MiB (2%)Language : EnglishDefault : NoForced : No

Скриншоты

Coming soon

_________________
Показать сообщения:    

Текущее время: Сегодня 13:56

Часовой пояс: GMT



Вы не можете начинать темы
Вы не можете отвечать на сообщения
Вы не можете редактировать свои сообщения
Вы не можете удалять свои сообщения
Вы не можете голосовать в опросах
Вы не можете прикреплять файлы к сообщениям
Вы не можете скачивать файлы