Ивановский Торрент трекер
Яндекс.Погода
 

[Цитировать]
HUNTER

GP3 2015. Этап 02 Австрия. Гонка 1. Eurosport HD HDTVRemux

Вид спорта: Автогонки
Дата/Год выпуска: 20.06.2015
Язык комментариев: Русский (Александр Кабановский), Английский
Описание: 1 гонка 2 этапа гоночной серии GP3 в Австрии на трассе "Ред Булл Ринг"
Автор рипа/записи: Ales
Качество: HDTVRemux
Формат видео: MKV
Видео: AVC H264, 1920x1080, 25 fps, 9 521 Kbps
Аудио: MP2 2.0 48.0 KHz 192 Kbps

Продолжительность

00:35:02

MediaInfo

GeneralUnique ID : 246395133348813854889205325213557235850 (0xB95DF9FEF834C81AA9EEAC1B8286A08A)Complete name : F:\GP32015\GP3_2015_R02_AUT_RACE1_HDTVREMUX.mkvFormat : MatroskaFormat version : Version 4 / Version 2File size : 2.47 GiBDuration : 35mn 2sOverall bit rate : 10.1 MbpsEncoded date : UTC 2015-06-21 09:31:16Writing application : mkvmerge v8.0.0 ('Til The Day That I Die') 64bitWriting library : libebml v1.3.1 + libmatroska v1.4.2DURATION : 00:35:02.613000000NUMBER_OF_FRAMES : 87607NUMBER_OF_BYTES : 50461632_STATISTICS_WRITING_APP : mkvmerge v8.0.0 ('Til The Day That I Die') 64bit_STATISTICS_WRITING_DATE_UTC : 2015-06-21 09:31:16_STATISTICS_TAGS : BPS DURATION NUMBER_OF_FRAMES NUMBER_OF_BYTES
VideoID : 1Format : AVCFormat/Info : Advanced Video CodecFormat profile : Main@L4Format settings, CABAC : YesFormat settings, ReFrames : 4 framesCodec ID : V_MPEG4/ISO/AVCBit rate : 9 521 KbpsWidth : 1 920 pixelsHeight : 1 080 pixelsDisplay aspect ratio : 16:9Frame rate mode : VariableOriginal frame rate : 25.000 fpsStandard : ComponentColor space : YUVChroma subsampling : 4:2:0Bit depth : 8 bitsScan type : InterlacedScan order : Top Field FirstDefault : YesForced : NoColor range : LimitedColor primaries : BT.709Transfer characteristics : BT.709Matrix coefficients : BT.709
Audio #1ID : 2Format : MPEG AudioFormat version : Version 1Format profile : Layer 2Codec ID : A_MPEG/L2Codec ID/Hint : MP2Duration : 35mn 2sBit rate mode : ConstantBit rate : 192 KbpsChannel(s) : 2 channelsSampling rate : 48.0 KHzCompression mode : LossyDelay relative to video : -7msStream size : 48.1 MiB (2%)Language : RussianDefault : YesForced : No
Audio #2ID : 3Format : MPEG AudioFormat version : Version 1Format profile : Layer 2Codec ID : A_MPEG/L2Codec ID/Hint : MP2Duration : 35mn 2sBit rate mode : ConstantBit rate : 192 KbpsChannel(s) : 2 channelsSampling rate : 48.0 KHzCompression mode : LossyDelay relative to video : -7msStream size : 48.1 MiB (2%)Language : EnglishDefault : NoForced : No

Скриншоты

Coming soon
0 человек читают эту тему: 0 пользователей, 0 скрытых пользователей, 0 гостей

Показать сообщения:    

Текущее время: 24-Авг 07:35

Часовой пояс: UTC - 1


Вы не можете начинать темы
Вы не можете отвечать на сообщения
Вы не можете редактировать свои сообщения
Вы не можете удалять свои сообщения
Вы не можете голосовать в опросах
Вы не можете прикреплять файлы к сообщениям
Вы не можете скачивать файлы

!ВНИМАНИЕ!
Сайт не предоставляет электронные версии произведений, а занимается лишь коллекционированием и каталогизацией ссылок, присылаемых и публикуемых на форуме нашими читателями. Если вы являетесь правообладателем какого-либо представленного материала и не желаете, чтобы ссылка на него находилась в нашем каталоге, свяжитесь с нами, и мы незамедлительно удалим ее. Файлы для обмена на трекере предоставлены пользователями сайта, и администрация не несет ответственности за их содержание. Просьба не заливать файлы, защищенные авторскими правами, а также файлы нелегального содержания!