Ивановский Торрент трекер
Яндекс.Погода
 

[Цитировать]
HUNTER

GP2 Series 2014. Этап 07. Венгрия. Hungaroring. Гонка 1-2
Вид спорта: Автогонки
Дата/Год выпуска: 26-27.07.14
Язык комментариев: русский, немецкий
Автор записи: SashaR.
Качество: DVB-S2 Remux
Формат видео: TS

Media Info

Sky Sport 1 HD
J:\Раздачи\GP2 Series 2014. Этап 07. Венгрия. Hungaroring\GP2. Race 1 (Sky Sport 1 HD).ts
General #6
ID : 6 (0x6)
Complete name : J:\Раздачи\GP2 Series 2014. Этап 07. Венгрия. Hungaroring\GP2. Race 1 (Sky Sport 1 HD).ts
Format : MPEG-TS
File size : 8.11 GiB
Duration : 1h 21mn
Overall bit rate mode : Variable
Overall bit rate : 14.3 Mbps
Video #767
ID : 767 (0x2FF)
Menu ID : 129 (0x81)
Format : AVC
Format/Info : Advanced Video Codec
Format profile : High@L4.0
Format settings, CABAC : Yes
Format settings, ReFrames : 3 frames
Codec ID : 27
Duration : 1h 21mn
Bit rate : 12.7 Mbps
Width : 1 920 pixels
Height : 1 080 pixels
Display aspect ratio : 16:9
Frame rate : 25.000 fps
Standard : Component
Color space : YUV
Chroma subsampling : 4:2:0
Bit depth : 8 bits
Scan type : Interlaced
Scan order : Top Field First
Bits/(Pixel*Frame) : 0.246
Stream size : 7.25 GiB (89%)
Color primaries : BT.709
Transfer characteristics : BT.709
Matrix coefficients : BT.709
Audio #770
ID : 770 (0x302)
Menu ID : 129 (0x81)
Format : AC-3
Format/Info : Audio Coding 3
Mode extension : CM (complete main)
Format settings, Endianness : Big
Codec ID : 6
Duration : 1h 21mn
Bit rate mode : Constant
Bit rate : 192 Kbps
Channel count : 2 channels
Channel positions : Front: L R
Sampling rate : 48.0 KHz
Bit depth : 16 bits
Compression mode : Lossy
Delay relative to video : 73ms
Stream size : 112 MiB (1%)
Language : German
Language, more info : Clean effects
Audio #771
ID : 771 (0x303)
Menu ID : 129 (0x81)
Format : AC-3
Format/Info : Audio Coding 3
Mode extension : CM (complete main)
Format settings, Endianness : Big
Codec ID : 6
Duration : 1h 21mn
Bit rate mode : Constant
Bit rate : 384 Kbps
Channel count : 6 channels
Channel positions : Front: L C R, Side: L R, LFE
Sampling rate : 48.0 KHz
Bit depth : 16 bits
Compression mode : Lossy
Delay relative to video : 47ms
Stream size : 224 MiB (3%)
Language : German
Language, more info : Clean effects
Audio #772
ID : 772 (0x304)
Menu ID : 129 (0x81)
Format : AC-3
Format/Info : Audio Coding 3
Mode extension : CM (complete main)
Format settings, Endianness : Big
Codec ID : 6
Duration : 1h 21mn
Bit rate mode : Constant
Bit rate : 224 Kbps
Channel count : 2 channels
Channel positions : Front: L R
Sampling rate : 48.0 KHz
Bit depth : 16 bits
Compression mode : Lossy
Delay relative to video : 104ms
Stream size : 130 MiB (2%)
Language : English
Language, more info : Clean effects

Спорт 1 HD

J:\Раздачи\GP2 Series 2014. Этап 07. Венгрия. Hungaroring\GP2. Race 1 (Спорт 1 HD).ts
General #20
ID : 20 (0x14)
Complete name : J:\Раздачи\GP2 Series 2014. Этап 07. Венгрия. Hungaroring\GP2. Race 1 (Спорт 1 HD).ts
Format : MPEG-TS
File size : 5.80 GiB
Duration : 1h 17mn
Overall bit rate mode : Variable
Overall bit rate : 10.7 Mbps
Video #303
ID : 303 (0x12F)
Menu ID : 20103 (0x4E87)
Format : AVC
Format/Info : Advanced Video Codec
Format profile : High@L4.0
Format settings, CABAC : Yes
Format settings, ReFrames : 4 frames
Format settings, GOP : M=4, N=28
Codec ID : 27
Duration : 1h 17mn
Bit rate : 9 986 Kbps
Width : 1 920 pixels
Height : 1 080 pixels
Display aspect ratio : 16:9
Frame rate : 25.000 fps
Standard : Component
Color space : YUV
Chroma subsampling : 4:2:0
Bit depth : 8 bits
Scan type : Interlaced
Scan order : Top Field First
Bits/(Pixel*Frame) : 0.193
Stream size : 5.41 GiB (93%)
Color primaries : BT.709
Transfer characteristics : BT.709
Matrix coefficients : BT.709
Audio #403
ID : 403 (0x193)
Menu ID : 20103 (0x4E87)
Format : MPEG Audio
Format version : Version 1
Format profile : Layer 2
Codec ID : 4
Duration : 1h 17mn
Bit rate mode : Constant
Bit rate : 192 Kbps
Channel count : 2 channels
Sampling rate : 48.0 KHz
Compression mode : Lossy
Delay relative to video : 43ms
Stream size : 107 MiB (2%)
Language : Russian

Продолжительность

GP2. Race 1 (Спорт 1 HD) - 01:17:23
GP2. Race 1 (Sky Sport 1 HD) - 01:21:24
GP2. Race 2 (Спорт 1 HD) - 00:55:37
GP2. Race 2 (Sky Sport 1 HD) - 01:00:17

Скриншоты

Показать сообщения:    

Текущее время: 20-Сен 04:47

Часовой пояс: UTC - 1


Вы не можете начинать темы
Вы не можете отвечать на сообщения
Вы не можете редактировать свои сообщения
Вы не можете удалять свои сообщения
Вы не можете голосовать в опросах
Вы не можете прикреплять файлы к сообщениям
Вы не можете скачивать файлы

!ВНИМАНИЕ!
Сайт не предоставляет электронные версии произведений, а занимается лишь коллекционированием и каталогизацией ссылок, присылаемых и публикуемых на форуме нашими читателями. Если вы являетесь правообладателем какого-либо представленного материала и не желаете, чтобы ссылка на него находилась в нашем каталоге, свяжитесь с нами, и мы незамедлительно удалим ее. Файлы для обмена на трекере предоставлены пользователями сайта, и администрация не несет ответственности за их содержание. Просьба не заливать файлы, защищенные авторскими правами, а также файлы нелегального содержания!