Важное объявление!
У Нас Все раздачи мультитрекерные, при нуле пиров в релизах, можете смело вставать на закачку!
 
Автор Сообщение

HUNTER

Стаж:
4 года 4 месяца
Сообщений:
56755

Репутация: 101

[+] [-]
Вне форума [Профиль] [ЛС]

GP2 2015. Этап 03. Monte Carlo (Monaco). Гонка 1
Вид спорта: Автогонки
Дата/Год выпуска: 22.05.15
Язык комментариев: немецкий
Автор записи: SashaR.
Качество: DVB-S2 Remux
Формат видео: TS
Видео: AVC, 1920x1080, 16:9, 11.9 Mbps, 25 fps
Аудио: AC-3, 224 Kbps, 48.0 kHz, 2 channels

Media Info

H:\Раздачи\GP2 2015. Этап 03. Monte Carlo (Monaco)\Гонка 1.ts
General #6
ID : 6 (0x6)
Complete name : H:\Раздачи\GP2 2015. Этап 03. Monte Carlo (Monaco)\Гонка 1.ts
Format : MPEG-TS
File size : 8.50 GiB
Duration : 1h 35mn
Overall bit rate mode : Variable
Overall bit rate : 12.7 Mbps
Video #767
ID : 767 (0x2FF)
Menu ID : 129 (0x81)
Format : AVC
Format/Info : Advanced Video Codec
Format profile : High@L4.0
Format settings, CABAC : Yes
Format settings, ReFrames : 3 frames
Codec ID : 27
Duration : 20ms
Bit rate : 11.9 Mbps
Width : 1 920 pixels
Height : 1 080 pixels
Display aspect ratio : 16:9
Frame rate : 25.000 fps
Standard : Component
Color space : YUV
Chroma subsampling : 4:2:0
Bit depth : 8 bits
Scan type : Interlaced
Bits/(Pixel*Frame) : 0.229
Stream size : 57.9 KiB (0%)
Color primaries : BT.709
Transfer characteristics : BT.709
Matrix coefficients : BT.709
Audio #772
ID : 772 (0x304)
Menu ID : 129 (0x81)
Format : AC-3
Format/Info : Audio Coding 3
Mode extension : CM (complete main)
Format settings, Endianness : Big
Codec ID : 6
Duration : 160ms
Bit rate mode : Constant
Bit rate : 224 Kbps
Channel count : 2 channels
Channel positions : Front: L R
Sampling rate : 48.0 KHz
Bit depth : 16 bits
Compression mode : Lossy
Stream size : 4.38 KiB (0%)
Language : English
Language, more info : Clean effects

Продолжительность

Гонка 1 - 01:35:42

Скриншоты


_________________
Показать сообщения:    

Текущее время: Сегодня 16:54

Часовой пояс: GMT



Вы не можете начинать темы
Вы не можете отвечать на сообщения
Вы не можете редактировать свои сообщения
Вы не можете удалять свои сообщения
Вы не можете голосовать в опросах
Вы не можете прикреплять файлы к сообщениям
Вы не можете скачивать файлы