Важное объявление!
У Нас Все раздачи мультитрекерные, при нуле пиров в релизах, можете смело вставать на закачку!
 
Автор Сообщение

HUNTER

Стаж:
4 года 9 месяцев
Сообщений:
65057

Репутация: 101

[+] [-]
Вне форума [Профиль] [ЛС]

GP2 2015. Этап 09. Россия. Квалификация, Гонка 1-2.
Вид спорта: Автогонки
Описание: 9 этап гоночной серии GP2 в России на трассе "Сочи Автодром"
Автор рипа: Ales
Формат видео: MKV

Квалификация (ENG). Sky Sport F1

Дата/Год выпуска: 09.10.2015
Качество: IPTVRip
Видео: MPEG 2, 704x576i, 25 fps, 2 987 Kbps (Sky Sport F1)
Аудио: AAC 2.0 48.0 KHz 192 Kbps (Английский, Sky Sport F1)
Субтитры: Английские (Автоматические, с ошибками)
Продолжительность
00:37:07

MediaInfo

GeneralUnique ID : 218691969484900984136054303987188085629 (0xA4868A9032E46EA599778F0BD25BB37D)Complete name : F:\GP2015\GP2_2015_R09_RUS_SDTVRIP\GP2_2015_R08_RUS_QUALIFYING_SDTVRIP.mkvFormat : MatroskaFormat version : Version 4 / Version 2File size : 861 MiBDuration : 37mn 7sOverall bit rate mode : VariableOverall bit rate : 3 244 KbpsEncoded date : UTC 2015-10-10 20:37:06Writing application : mkvmerge v8.3.0 ('Over the Horizon') 64bitWriting library : libebml v1.3.1 + libmatroska v1.4.2DURATION : 00:36:13.731000000NUMBER_OF_FRAMES : 379NUMBER_OF_BYTES : 23315_STATISTICS_WRITING_APP : mkvmerge v8.3.0 ('Over the Horizon') 64bit_STATISTICS_WRITING_DATE_UTC : 2015-10-10 20:37:06_STATISTICS_TAGS : BPS DURATION NUMBER_OF_FRAMES NUMBER_OF_BYTES
VideoID : 1Format : MPEG VideoFormat version : Version 2Format profile : Main@MainFormat settings, BVOP : YesFormat settings, Matrix : CustomFormat settings, GOP : VariableFormat settings, picture structure : FrameCodec ID : V_MPEG2Codec ID/Info : MPEG 1 or 2 VideoDuration : 37mn 7sBit rate mode : VariableBit rate : 2 987 KbpsMaximum bit rate : 15.0 MbpsWidth : 704 pixelsHeight : 576 pixelsDisplay aspect ratio : 16:9Frame rate mode : ConstantFrame rate : 25.000 fpsStandard : PALColor space : YUVChroma subsampling : 4:2:0Bit depth : 8 bitsScan type : InterlacedScan order : Top Field FirstCompression mode : LossyBits/(Pixel*Frame) : 0.295Time code of first frame : 00:00:00:00Time code source : Group of pictures headerStream size : 793 MiB (92%)Default : YesForced : No
AudioID : 2Format : MPEG AudioFormat version : Version 1Format profile : Layer 2Codec ID : A_MPEG/L2Codec ID/Hint : MP2Duration : 37mn 7sBit rate mode : ConstantBit rate : 192 KbpsChannel(s) : 2 channelsSampling rate : 48.0 KHzCompression mode : LossyDelay relative to video : -10msStream size : 51.0 MiB (6%)Default : YesForced : No
TextID : 3Format : UTF-8Codec ID : S_TEXT/UTF8Codec ID/Info : UTF-8 Plain TextDefault : YesForced : No

Скриншоты

Гонка 1 (ENG) Sky Sport F1

Дата/Год выпуска: 10.10.2015
Качество: IPTVRip
Видео: MPEG 2, 704x576i, 25 fps, 3 265 Kbps(Sky Sport F1)
Аудио: AAC 2.0 48.0 KHz 192 Kbps (Английский, Sky Sport F1)
Субтитры: Английские (Автоматические, с ошибками)
Продолжительность
01:21:45

MediaInfo

GeneralUnique ID : 250245504485521633428208334737948021814 (0xBC4387F3228F3828B3402856A7941436)Complete name : F:\GP2015\GP2_2015_R09_RUS_SDTVRIP\GP2_2015_R08_RUS_RACE1_SDTVRIP.mkvFormat : MatroskaFormat version : Version 4 / Version 2File size : 2.01 GiBDuration : 1h 21mnOverall bit rate mode : VariableOverall bit rate : 3 528 KbpsEncoded date : UTC 2015-10-10 20:43:57Writing application : mkvmerge v8.3.0 ('Over the Horizon') 64bitWriting library : libebml v1.3.1 + libmatroska v1.4.2DURATION : 01:20:26.909000000NUMBER_OF_FRAMES : 600NUMBER_OF_BYTES : 39289_STATISTICS_WRITING_APP : mkvmerge v8.3.0 ('Over the Horizon') 64bit_STATISTICS_WRITING_DATE_UTC : 2015-10-10 20:43:57_STATISTICS_TAGS : BPS DURATION NUMBER_OF_FRAMES NUMBER_OF_BYTES
VideoID : 2Format : MPEG VideoFormat version : Version 2Format profile : Main@MainFormat settings, BVOP : YesFormat settings, Matrix : CustomFormat settings, GOP : VariableFormat settings, picture structure : FrameCodec ID : V_MPEG2Codec ID/Info : MPEG 1 or 2 VideoDuration : 1h 21mnBit rate mode : VariableBit rate : 3 265 KbpsMaximum bit rate : 15.0 MbpsWidth : 704 pixelsHeight : 576 pixelsDisplay aspect ratio : 16:9Frame rate mode : ConstantFrame rate : 25.000 fpsStandard : PALColor space : YUVChroma subsampling : 4:2:0Bit depth : 8 bitsScan type : InterlacedScan order : Top Field FirstCompression mode : LossyBits/(Pixel*Frame) : 0.322Time code of first frame : 00:00:00:00Time code source : Group of pictures headerStream size : 1.86 GiB (93%)Language : EnglishDefault : YesForced : No
AudioID : 1Format : MPEG AudioFormat version : Version 1Format profile : Layer 2Codec ID : A_MPEG/L2Codec ID/Hint : MP2Duration : 1h 21mnBit rate mode : ConstantBit rate : 192 KbpsChannel(s) : 2 channelsSampling rate : 48.0 KHzCompression mode : LossyDelay relative to video : -18msStream size : 112 MiB (5%)Language : EnglishDefault : YesForced : No
TextID : 3Format : UTF-8Codec ID : S_TEXT/UTF8Codec ID/Info : UTF-8 Plain TextLanguage : EnglishDefault : YesForced : No

Скриншоты

Гонка 2 (ENG) Sky Sport F1 HD

Дата/Год выпуска: 11.10.2015
Качество: IPTVRip
Видео: AVC H264, 1280x720p, 25 fps, 2 130 Kbps (Sky Sport F1 HD)
Аудио: AAC 2.0 48.0 KHz 192 Kbps (Английский, Sky Sport F1 HD)
Продолжительность
01:03:46

MediaInfo

GeneralUnique ID : 246360719186207437371892614470251019696 (0xB957593F2B8B817691019201C0BB7DB0)Complete name : F:\GP2015\GP2_2015_R09_RUS_SDTVRIP\GP2_2015_R08_RUS_RACE2_HDTVRIP.mkvFormat : MatroskaFormat version : Version 4 / Version 2File size : 972 MiBDuration : 1h 3mnOverall bit rate : 2 130 KbpsEncoded date : UTC 2015-10-11 17:12:10Writing application : mkvmerge v8.3.0 ('Over the Horizon') 64bitWriting library : libebml v1.3.1 + libmatroska v1.4.2DURATION : 01:03:46.841000000NUMBER_OF_FRAMES : 95671NUMBER_OF_BYTES : 956644138_STATISTICS_WRITING_APP : mkvmerge v8.3.0 ('Over the Horizon') 64bit_STATISTICS_WRITING_DATE_UTC : 2015-10-11 17:12:10_STATISTICS_TAGS : BPS DURATION NUMBER_OF_FRAMES NUMBER_OF_BYTES
VideoID : 1Format : AVCFormat/Info : Advanced Video CodecFormat profile : Baseline@L3.1Format settings, CABAC : NoFormat settings, ReFrames : 2 framesFormat settings, GOP : M=1, N=30Codec ID : V_MPEG4/ISO/AVCDuration : 1h 3mnWidth : 1 280 pixelsHeight : 720 pixelsDisplay aspect ratio : 16:9Frame rate mode : ConstantFrame rate : 25.000 fpsColor space : YUVChroma subsampling : 4:2:0Bit depth : 8 bitsScan type : ProgressiveDefault : YesForced : No
AudioID : 2Format : AACFormat/Info : Advanced Audio CodecFormat profile : LCCodec ID : A_AACDuration : 1h 3mnChannel(s) : 2 channelsChannel positions : Front: L RSampling rate : 48.0 KHzCompression mode : LossyDelay relative to video : -10msLanguage : EnglishDefault : YesForced : No

Скриншоты


_________________
Показать сообщения:    

Текущее время: Сегодня 04:14

Часовой пояс: GMT



Вы не можете начинать темы
Вы не можете отвечать на сообщения
Вы не можете редактировать свои сообщения
Вы не можете удалять свои сообщения
Вы не можете голосовать в опросах
Вы не можете прикреплять файлы к сообщениям
Вы не можете скачивать файлы