Важное объявление!
У Нас Все раздачи мультитрекерные, при нуле пиров в релизах, можете смело вставать на закачку!
 
Автор Сообщение

HUNTER

Стаж:
4 года 7 месяцев
Сообщений:
61554

Репутация: 101

[+] [-]
Вне форума [Профиль] [ЛС]

GP2 2015. Этап 02. Гонка 1, 2
Вид спорта: Автогонки
Дата/Год выпуска: 09-10.05.15
Язык комментариев: интершум
Автор записи: SashaR.
Качество: DVB-S2 Remux
Формат видео: TS
Видео: AVC, 1920x1080, 16:9, 10.4 Mbps, 25 fps
Аудио: AC-3, 224 Kbps, 48.0 kHz, 2 channels

Media Info

G:\Раздачи\GP2 2015. Этап 2. Circuit de Barcelona-Catalunya , Spain\Гонка 1.ts
General #6
ID : 6 (0x6)
Complete name : G:\Раздачи\GP2 2015. Этап 2. Circuit de Barcelona-Catalunya , Spain\Гонка 1.ts
Format : MPEG-TS
File size : 5.79 GiB
Duration : 1h 18mn
Overall bit rate mode : Variable
Overall bit rate : 10.6 Mbps
Video #767
ID : 767 (0x2FF)
Menu ID : 129 (0x81)
Format : AVC
Format/Info : Advanced Video Codec
Format profile : High@L4.0
Format settings, CABAC : Yes
Format settings, ReFrames : 3 frames
Codec ID : 27
Duration : 1h 18mn
Bit rate : 9 849 Kbps
Width : 1 920 pixels
Height : 1 080 pixels
Display aspect ratio : 16:9
Frame rate : 25.000 fps
Standard : Component
Color space : YUV
Chroma subsampling : 4:2:0
Bit depth : 8 bits
Scan type : Interlaced
Scan order : Top Field First
Bits/(Pixel*Frame) : 0.190
Stream size : 5.38 GiB (93%)
Color primaries : BT.709
Transfer characteristics : BT.709
Matrix coefficients : BT.709
Audio #772
ID : 772 (0x304)
Menu ID : 129 (0x81)
Format : AC-3
Format/Info : Audio Coding 3
Mode extension : CM (complete main)
Format settings, Endianness : Big
Codec ID : 6
Duration : 1h 18mn
Bit rate mode : Constant
Bit rate : 224 Kbps
Channel count : 2 channels
Channel positions : Front: L R
Sampling rate : 48.0 KHz
Bit depth : 16 bits
Compression mode : Lossy
Delay relative to video : 130ms
Stream size : 125 MiB (2%)
Language : English
Language, more info : Clean effects

Продолжительность

Гонка 1 - 01:18:16
Гонка 2 - 00:58:02

Скриншоты


_________________
Показать сообщения:    

Текущее время: Сегодня 07:19

Часовой пояс: GMT



Вы не можете начинать темы
Вы не можете отвечать на сообщения
Вы не можете редактировать свои сообщения
Вы не можете удалять свои сообщения
Вы не можете голосовать в опросах
Вы не можете прикреплять файлы к сообщениям
Вы не можете скачивать файлы
Наши партнеры: интернет магазин Ивановского трикотажа textilla.ru