Важное объявление!
У Нас Все раздачи мультитрекерные, при нуле пиров в релизах, можете смело вставать на закачку!
Статистика раздачи
Размер:     |    Зарегистрирован:     |    Скачан:     |   
Нет
 
     
 
 
Автор Сообщение

HUNTER

Стаж:
5 лет
Сообщений:
67979

Репутация: 101

[+] [-]
Вне форума [Профиль] [ЛС]

GP2. Сезон 2014. Этап 10. Гран-при России. Практика, Квалификация, Гонка 1. Спорт 1 HD, Sky Sport 1 HD
Вид спорта: Автогонки
Дата/Год выпуска: 10-11.10.14
Язык комментариев: русский (Владимир Башмаков), немецкий
Автор записи: SashaR.
Качество: DVB-S2 Remux
Формат видео: TS
Видео: AVC, 1920x1080, 16:9, 11.4 Mbps, 25 fps
Аудио: MP2, 192 Kbps, 48.0 kHz, 2 channels

Media Info

H:\Раздачи\GP2. Сезон 2014. Этап 10. Гран-при России\Свободная практика.ts
General #6
ID : 6 (0x6)
Complete name : H:\Раздачи\GP2. Сезон 2014. Этап 10. Гран-при России\Свободная практика.ts
Format : MPEG-TS
File size : 4.97 GiB
Duration : 58mn 18s
Overall bit rate mode : Variable
Overall bit rate : 12.2 Mbps
Video #303
ID : 303 (0x12F)
Menu ID : 20103 (0x4E87)
Format : AVC
Format/Info : Advanced Video Codec
Format profile : High@L4.0
Format settings, CABAC : Yes
Format settings, ReFrames : 4 frames
Format settings, GOP : M=4, N=28
Codec ID : 27
Duration : 58mn 16s
Bit rate : 11.4 Mbps
Width : 1 920 pixels
Height : 1 080 pixels
Display aspect ratio : 16:9
Frame rate : 25.000 fps
Standard : Component
Color space : YUV
Chroma subsampling : 4:2:0
Bit depth : 8 bits
Scan type : Interlaced
Scan order : Top Field First
Bits/(Pixel*Frame) : 0.220
Stream size : 4.64 GiB (93%)
Color primaries : BT.709
Transfer characteristics : BT.709
Matrix coefficients : BT.709
Audio #403
ID : 403 (0x193)
Menu ID : 20103 (0x4E87)
Format : MPEG Audio
Format version : Version 1
Format profile : Layer 2
Codec ID : 4
Duration : 58mn 17s
Bit rate mode : Constant
Bit rate : 192 Kbps
Channel count : 2 channels
Sampling rate : 48.0 KHz
Compression mode : Lossy
Delay relative to video : 103ms
Stream size : 80.1 MiB (2%)
Language : Russian

Продолжительность

Скриншоты


_________________
Показать сообщения:    

Текущее время: Сегодня 08:54

Часовой пояс: GMT



Вы не можете начинать темы
Вы не можете отвечать на сообщения
Вы не можете редактировать свои сообщения
Вы не можете удалять свои сообщения
Вы не можете голосовать в опросах
Вы не можете прикреплять файлы к сообщениям
Вы не можете скачивать файлы