Важное объявление!
У Нас Все раздачи мультитрекерные, при нуле пиров в релизах, можете смело вставать на закачку!
 
Автор Сообщение

HUNTER

Стаж:
4 года 4 месяца
Сообщений:
56772

Репутация: 101

[+] [-]
Вне форума [Профиль] [ЛС]

-Горько! 2-«Будем жить»
-Страна: Россия
Студия: Базелевс Продакшн, Кинокомпания «Lunapark», Таббак
Жанр: комедия
Год выпуска: 2014
Мировая премьера: 23 октября 2014
Российская премьера: 23 октября 2014, «Bazelevs Distribution», «Двадцатый Век Фокс СНГ»
Дата выхода DVD: 18 Декабря 2014, «CP Дистрибуция»
Дата выхода Blu-Ray: 18 Декабря 2014, «CP Дистрибуция»
Продолжительность: 01:32:41
Перевод: Оригинал [Лицензия]
Cубтитры: английские
Оригинальная аудиодорожка: русский-Режиссер: Жора Крыжовников-В ролях: Сергей Светлаков, Юлия Александрова, Егор Корешков, Ян Цапник, Сергей Лавыгин, Елена Валюшкина, Александр Паль, Валентина Мазунина, Юлия Стадник, Александр Робак-Описание: В надежде сорвать большой куш Наташин отчим идет на финансовую авантюру, чем подставляет своих партнеров по бизнесу. Без лишних слов те устраивают на него покушение. Вся семья скорбит по Борису Ивановичу… а он в гробу все это видел. Ему бы три дня пролежать и похороны пережить, а там родные откопают и можно спать спокойно. И все идет по плану уцелевшего отчима, пока проститься с ним не приезжает боевой товарищ. Рубаха-парень Витька Каравай мгновенно покоряет всю семью, перетягивая общее внимание на себя. Задетый за живое, покойник заставляет родных устроить роскошные поминки с участием Светлакова…-Бонусы: Создатели и исполнители, Смотрите на DVD- -Качество: DVD9 R5
Формат: DVD-Video
Видео кодек: MPEG2
Аудио кодек: AC3
Видео: PAL 16:9 (720x576(0.579)) MPEG Video, 25,000 кадр/сек, 6004 Кбит/сек
Аудио: Russian (Dolby AC3, 6 ch) 448 Кбит/сек, 48,0 КГц--

DVDInfo

Title: Рабочий
Size: 4.69 Gb ( 4 918 078 KBytes ) - DVD-9
Enabled regions: 1, 2, 3, 4, 5, 6, 7, 8
VTS_01 :
Play Length: 00:00:05
Video: PAL 4:3 (720x576) VBR
Audio:
Not specified (Dolby AC3, 2 ch)
Not specified (Dolby AC3, 2 ch)
Not specified (Dolby AC3, 2 ch)
Subtitles:
Not specified
Not specified
VTS_02 :
Play Length: 00:00:09
Video: PAL 16:9 (720x576) VBR, Auto Pan&Scan
Audio:
Not specified (Dolby AC3, 2 ch)
Not specified (Dolby AC3, 2 ch)
Not specified (Dolby AC3, 2 ch)
Subtitles:
Not specified
VTS_03 :
Play Length: 00:02:07
Video: PAL 16:9 (720x576) VBR, Auto Pan&Scan
Audio:
Not specified (Dolby AC3, 2 ch)
Not specified (Dolby AC3, 2 ch)
Not specified (Dolby AC3, 2 ch)
Subtitles:
Not specified
VTS_04 :
Play Length: 01:32:41
Video: PAL 16:9 (720x576) VBR, Auto Pan&Scan
Audio:
Russian (Dolby AC3, 6 ch)
Subtitles:
English
VTS_05 :
Play Length: 00:02:24
Video: PAL 16:9 (720x576) VBR, Auto Pan&Scan
Audio:
Not specified (Dolby AC3, 2 ch)
Subtitles:
Not specified
VTS_06 :
Play Length: 00:02:25
Video: PAL 16:9 (720x576) VBR, Auto Pan&Scan
Audio:
Not specified (Dolby AC3, 6 ch)
Not specified (Dolby AC3, 6 ch)
Not specified (Dolby AC3, 6 ch)
Subtitles:
Not specified
VTS_07 :
Play Length: 00:02:33
Video: PAL 16:9 (720x576) VBR, Auto Pan&Scan
Audio:
Not specified (Dolby AC3, 2 ch)
Subtitles:
Not specified
Menu Video:
PAL 16:9 (720x576) VBR
Auto Pan&Scan, Auto Letterboxed
Menu Subtitles:
Not specified
Menu English Language Unit :
Root Menu
Chapter (PTT) Menu

MediaInfo

Общее
Полное имя : F:\Новинки 2014\Gorko.2.2014.DVD9\VIDEO_TS\VTS_04_2.VOB
Формат : MPEG-PS
Размер файла : 1024 Мбайт
Продолжительность : 21 м.
Режим общего битрейта : Переменный
Общий поток : 6583 Кбит/сек
Видео
Идентификатор : 224 (0xE0)
Формат : MPEG Video
Версия формата : Version 2
Профиль формата : Main@Main
Параметр BVOP формата : Да
Параметр матрицы формата : По умолчанию
Параметр GOP формата : M=3, N=12
Продолжительность : 21 м.
Вид битрейта : Переменный
Битрейт : 6004 Кбит/сек
Максимальный битрейт : 8000 Кбит/сек
Ширина : 720 пикселей
Высота : 576 пикселей
Соотношение сторон : 16:9
Частота кадров : 25,000 кадров/сек
Стандарт вещания : PAL
Цветовое пространство : YUV
Субдискретизация насыщенности : 4:2:0
Битовая глубина : 8 бит
Тип развёртки : Прогрессивная
Метод сжатия : С потерями
Бит/(Пиксели*Кадры) : 0.579
Временной код первого кадра : 00:21:45:13
Оригинал временного кода : Group of pictures header
Размер потока : 934 Мбайт (91%)
Аудио
Идентификатор : 189 (0xBD)-128 (0x80)
Формат : AC-3
Формат/Информация : Audio Coding 3
Расширение режима : CM (complete main)
Параметр Endianness формата : Big
Режим смешивания : DVD-Video
Продолжительность : 21 м.
Вид битрейта : Постоянный
Битрейт : 448 Кбит/сек
Каналы : 6 каналов
Расположение каналов : Front: L C R, Side: L R, LFE
Частота : 48,0 КГц
Битовая глубина : 16 бит
Метод сжатия : С потерями
Задержка видео : -512 мс.
Размер потока : 69,7 Мбайт (7%)
Текст
Идентификатор : 189 (0xBD)-32 (0x20)
Формат : RLE
Формат/Информация : Run-length encoding
Режим смешивания : DVD-Video
Продолжительность : 21 м.
Задержка видео : 2 с. 960 мс.

Скриншоты меню

Скриншоты фильма

Скриншоты доп. материалов


-
-Раздача от группы:

_________________
Показать сообщения:    

Текущее время: Сегодня 10:29

Часовой пояс: GMT



Вы не можете начинать темы
Вы не можете отвечать на сообщения
Вы не можете редактировать свои сообщения
Вы не можете удалять свои сообщения
Вы не можете голосовать в опросах
Вы не можете прикреплять файлы к сообщениям
Вы не можете скачивать файлы