Ивановский Торрент трекер
Яндекс.Погода
 

[Цитировать]
HUNTER

Globus - Live at Wembley-Год выпуска: 2008
Страна: США
Жанр: Epic Music, Classical Crossover, Alternative, New Age, Orchestral, Choral, Gothic-rok
Продолжительность: 60 мин + доп. материалы
Описание: музыкальный проект продюсера и композитора Йоав Горена, микс музыкантов и вокалистов, также можно сказать, что это коммерческое имя известной компании музыкального продакшена «Immediate Music». Группа «Globus» объединяет драматичную, кинематографическую, эпическую оркестрово-хоровую музыку с современными и мировыми музыкальными стилями и ритмами (рок, поп, классика и этника). Являются пионерами нового жанра — эпического рока (Epic Rock), также называют кинематографическим роком (Cinematic Rock).-

Треклист

  • Before the show
  • Arcana (Concert)
  • Europe (Concert)
  • Prelude: On Earth As In Heaven (Concert)
  • Madre Terra (Concert)
  • Preliator (Concert)
  • Crusaders Of The Light (Concert)
  • La Coronacion (Concert)
  • Orchard in the studio
  • Orchard Of Mines (Concert)
  • Mighty Rivers Run (Concert)
  • Porque Te Vas (Concert)
  • Take Me Away (Concert)
  • Diem Ex Dei (Concert)
  • Dann and Yoav
    Дополнительные материалы:
  • Orchard Of Mines (Music Video)
  • Prelude: On Earth As In Heaven (Music Video)
  • Spiritus Khayyam (Music Video)
  • Orchard Of Mines (Unplugged)
  • Interview With Producer Yoav Goren
-Качество: DVD5
Формат: DVD Video
Видео кодек: MPEG2
Аудио кодек: AC3
Видео: PAL 720x576 25.00 fps, ~5100 kb/s
Аудио: 44kHz, AC-3, 2 ch, 448 Kbps

Скриншоты

MediaInfo

Код: copyText_writeLink('this.parentNode.parentNode.nextSibling.nextSibling'); Общее
Формат : MPEG-PS
Размер файла : 49,7 Мбайт
Продолжительность : 1 с. 480 мс.
Общий поток : 282 Мбит/сек
Видео
Идентификатор : 224 (0xE0)
Формат : MPEG Video
Версия формата : Version 2
Профиль формата : Main@Main
Параметр BVOP формата : Да
Параметр матрицы формата : По умолчанию
Параметр GOP формата : Variable
Продолжительность : 1 с. 480 мс.
Битрейт : 276 Мбит/сек
Максимальный битрейт : 4900 Кбит/сек
Ширина : 720 пикселей
Высота : 576 пикселей
Соотношение сторон : 4:3
Частота кадров : 25,000 кадров/сек
Стандарт вещания : PAL
Цветовое пространство : YUV
Субдискретизация насыщенности : 4:2:0
Битовая глубина : 8 бит
Тип развёртки : Чересстрочная
Порядок развёртки : Верхнее поле первое
Метод сжатия : С потерями
Бит/(Пиксели*Кадры) : 26.609
TimeCode_FirstFrame : 01:00:04:12
TimeCode_Source : Group of pictures header
Размер потока : 48,7 Мбайт (98%)
Основные цвета : BT.601 PAL
Характеристики трансфера : BT.470 System B, BT.470 System G
Коэффициенты матрицы : BT.601
Аудио
Идентификатор : 189 (0xBD)-128 (0x80)
Формат : AC-3
Формат/Информация : Audio Coding 3
Расширение режима : CM (complete main)
Параметр Endianness формата : Big
Режим смешивания : DVD-Video
Продолжительность : 1 с. 88 мс.
Вид битрейта : Постоянный
Битрейт : 448 Кбит/сек
Каналы : 2 канала
Расположение каналов : Front: L R
Частота : 48,0 КГц
Битовая глубина : 16 бит
Метод сжатия : С потерями
Размер потока : 59,5 Кбайт (0%)
Показать сообщения:    

Текущее время: 22-Окт 14:41

Часовой пояс: UTC - 1


Вы не можете начинать темы
Вы не можете отвечать на сообщения
Вы не можете редактировать свои сообщения
Вы не можете удалять свои сообщения
Вы не можете голосовать в опросах
Вы не можете прикреплять файлы к сообщениям
Вы не можете скачивать файлы

!ВНИМАНИЕ!
Сайт не предоставляет электронные версии произведений, а занимается лишь коллекционированием и каталогизацией ссылок, присылаемых и публикуемых на форуме нашими читателями. Если вы являетесь правообладателем какого-либо представленного материала и не желаете, чтобы ссылка на него находилась в нашем каталоге, свяжитесь с нами, и мы незамедлительно удалим ее. Файлы для обмена на трекере предоставлены пользователями сайта, и администрация не несет ответственности за их содержание. Просьба не заливать файлы, защищенные авторскими правами, а также файлы нелегального содержания!