Ивановский Торрент трекер
Яндекс.Погода
 

[Quote]
HUNTER

Гибель "Курска". Следственный эксперимент
Дата/Год выпуска: 2015
Страна: Россия
Жанр: военно-исторический
Продолжительность: 00:40:56
Перевод: Не требуется
Русские субтитры: нет
Оригинальная аудиодорожка: русский
Телеканал: ТК "Звезда"
Описание: 15 лет прошло с момента гибели атомной подводной лодки "Курск". До сих пор пишутся книги, снимаются фильмы, вспоминаются погибшие моряки. Казалось бы, "Курск" - давно уже история. Но масштаб катастрофы и переживание этого горя всей страной - не отпускают...Почти два года длилось расследование этой катастрофы. Отрабатывались разные версии гибели субмарины. Рассматривались даже самые фантастические. Все это делалось для того, чтобы прийти к единственно верной. Вместе с участниками того сложного, долгого и очень важного для страны дела: следователями, конструкторами, судебно-медицинскими экспертами мы еще раз пройдем все этапы следствия. Вместе со зрителем - разберем и отвергнем различные версии и убедимся в правильности окончательной версии. И, конечно, вспомним погибших моряков. За 15 лет их дети выросли, многие продолжили дело отцов и пошли на флот. В морских училищах и в списках экипажей судов и подводных лодок, по-прежнему, звучат фамилии тех, кто боролся за свою жизнь и жизнь друзей, и кого было невозможно спасти...
качество: SATRip
формат: AVI
Видео: MPEG4, XviD, 704x400 (16:9), 25.000 fps, 1 500 Kbps (0.213 bit/pixel)
Аудио: MP3, 48.0 KHz, 2 ch, 128 Kbps, CBR

MediaInfo

General
Complete name : C:\Users\User\Downloads\Гибель Курска. Следственный эксперимент.avi
Format : AVI
Format/Info : Audio Video Interleave
File size : 480 MiB
Duration : 40mn 56s
Overall bit rate : 1 638 Kbps
Writing application : VirtualDubMod 1.5.10.3 | www.virtualdub-fr.org || (build 2550/release)
Writing library : VirtualDubMod build 2550/release
Video
ID : 0
Format : MPEG-4 Visual
Format profile : Advanced [email protected]
Format settings, BVOP : 2
Format settings, QPel : No
Format settings, GMC : No warppoints
Format settings, Matrix : Default (MPEG)
Codec ID : XVID
Codec ID/Hint : XviD
Duration : 40mn 56s
Bit rate : 1 500 Kbps
Width : 704 pixels
Height : 400 pixels
Display aspect ratio : 16:9
Frame rate : 25.000 fps
Color space : YUV
Chroma subsampling : 4:2:0
Bit depth : 8 bits
Scan type : Progressive
Compression mode : Lossy
Bits/(Pixel*Frame) : 0.213
Stream size : 439 MiB (92%)
Writing library : XviD 73
Audio
ID : 1
Format : MPEG Audio
Format version : Version 1
Format profile : Layer 3
Codec ID : 55
Codec ID/Hint : MP3
Duration : 40mn 56s
Bit rate mode : Constant
Bit rate : 128 Kbps
Channel(s) : 2 channels
Sampling rate : 48.0 KHz
Compression mode : Lossy
Stream size : 37.5 MiB (8%)
Alignment : Aligned on interleaves
Interleave, duration : 40 ms (1.00 video frame)
Interleave, preload duration : 504 ms
Writing library : LAME3.99r
Encoding settings : -m s -V 4 -q 2 -lowpass 17 -b 128

Скриншоты



Display posts:    

Current time is: 13-Jul 10:47

All times are UTC ± 0


You cannot post new topics in this forum
You cannot reply to topics in this forum
You cannot edit your posts in this forum
You cannot delete your posts in this forum
You cannot vote in polls in this forum
You cannot attach files in this forum
You cannot download files in this forum

!ATTENTION!
The site does not give electronic versions of products, and is engaged only in a collecting and cataloguing of the references sent and published at a forum by our readers. If you are the legal owner of any submitted material and do not wish that the reference to it was in our catalogue, contact us and we shall immediately remove her. Files for an exchange on tracker are given by users of a site, and the administration does not bear the responsibility for their maintenance. The request to not fill in the files protected by copyrights, and also files of the illegal maintenance!