Ивановский Торрент трекер
Яндекс.Погода
 

[Quote]
HUNTER

Геошторм / Geostorm
Год выпуска: 2017
Страна: США (Warner Bros. Pictures, Skydance Productions, Ratpac-Dune Entertainment, Access Entertainment, Electric Entertainment)
Жанр: Фантастика, Боевик, Триллер, Катастрофа
Продолжительность: 01:49:07
Перевод: Профессиональный дублированный(лицензия)
Русские субтитры: нет
Режиссер: Дин Девлин / Dean Devlin
В ролях: Джерард Батлер, Джим Стёрджесс, Эбби Корниш, Александра Мария Лара, Дэниэл Ву, Эухенио Дербес, Амр Вакед, Эдеперо Одуйе, Энди Гарсиа, Эд Харрис, Роберт Шиэн, Ричард Шифф, Мэр Уиннингхэм, Зази Битц, Талита Бейтман, Даниэлла Гарсиа-Лоридо, Ричи Монтгомери, Билли Слотер, Грегори Алан Уильямс, Дэвид Дженсен, Дерек Робертс, Нэйтан Мур, Катрин Эштон, Рэндолл Ньюсом, Дуглас М. Гриффин
Описание: После беспрецедентной серии стихийных бедствий, обрушившихся на нашу планету, лидеры мировых держав объединили усилия, чтобы создать разветвленную сеть орбитальных спутников по контролю над климатом для предотвращения природных катаклизмов. Но что-то пошло не так — система, выстроенная для защиты Земли, теперь угрожает ей. Начинается гонка наперегонки со временем, в которой надо успеть обнаружить реальную угрозу до того, как всемирный Геошторм сотрёт с лица Земли всё живое.
Сэмпл: http://sendfile.su/1397380
Качество: BDrip
Контейнер: MKV
Формат 3D: OverUnder / Вертикальная стереопара
Порядок ракурсов: левый ракурс первый
Видео кодек: x264
Аудио кодек: AC3
Видео: AVC / [email protected] / 23,976 fps / 1920х2160 / 20,7 Мбит/сек
Аудио: Русский / AC3 / 48 KHz / 5.1 ch / 448 Кбит/сек(лицензия)
Аудио 2: Английский / AC3 / 48 KHz / 5.1 ch / 640 Кбит/сек
ВНИМАНИЕ ! На встроенных ТВ-плеерах работать не будет!!!
ТВ Samsung в названии которого есть надпись Ultra HD , и LG Ultra HD 800 серии, LG C6P, Xiaomi Mi TV 2 воспроизводят полные стереопары встроенными плеерами
Железные плееры на которых воспроизводятся полные стереопары:Popcorn C-200 , Dune HD Smart D1 , Dune HD DUO , Dune HD Smart H1 , Dune HD Smart B1 , Dune HD Max , Dune HD TV-303D , Dune HD Base 3D, Philips HMP7001, Aura HD, MECOOL BB2
Чтобы изображение было на весь экран в плеере выставляем, если рип 1920х1600 - то выставляем 2.35:1 , если 1920х2160 - то выставляем 16:9
8.02.2018. Релиз обновлён - русская звуковая дорога iTunes заменена на лицензию.
Желающие, скачайте заново торрент-файл.

MediaInfo

Общее
Уникальный идентификатор : 239607828930255534762624722513001886062 (0xB442CA0D3F55D6CDA8ED9F929F12B16E)
Полное имя : E:\закачки\Geostorm.Rip by SeRoGa00.mkv
Формат : Matroska
Версия формата : Version 2
Размер файла : 16,9 Гбайт
Продолжительность : 1 ч. 49 м.
Общий поток : 22,2 Мбит/сек
Дата кодирования : UTC 2018-01-22 19:40:27
Программа кодирования : mkvmerge v3.4.0 ('Rapunzel') сборка от May 15 2010 09:38:20
Библиотека кодирования : libebml v0.8.0 + libmatroska v0.9.0
Видео
Идентификатор : 1
Формат : AVC
Формат/Информация : Advanced Video Codec
Профиль формата : [email protected]
MultiView_Count : 2
MultiView_Layout : Both Eye
Параметр CABAC формата : Да
Параметр ReFrames формата : 4 кадра
Идентификатор кодека : V_MPEG4/ISO/AVC
Продолжительность : 1 ч. 49 м.
Битрейт : 20,7 Мбит/сек
Ширина : 1920 пикселей
Высота : 2160 пикселей
Соотношение сторон : 16:9
Соотношение сторон в оригинале : 0,889
Частота кадров : 23,976 кадра/сек
Цветовое пространство : YUV
Субдискретизация насыщенности : 4:2:0
Битовая глубина : 8 бит
Тип развёртки : Прогрессивная
Бит/(Пиксели*Кадры) : 0.208
Размер потока : 15,8 Гбайт (93%)
Заголовок : Rip by SeRoGa00
Библиотека кодирования : x264 core 152 r2851 ba24899
Настройки программы : cabac=1 / ref=4 / deblock=1:-3:-3 / analyse=0x3:0x113 / me=umh / subme=10 / psy=1 / psy_rd=1.00:0.15 / mixed_ref=1 / me_range=24 / chroma_me=1 / trellis=2 / 8x8dct=1 / cqm=0 / deadzone=21,11 / fast_pskip=1 / chroma_qp_offset=-3 / threads=9 / lookahead_threads=2 / sliced_threads=0 / nr=0 / decimate=1 / interlaced=0 / bluray_compat=0 / constrained_intra=0 / bframes=10 / b_pyramid=2 / b_adapt=2 / b_bias=0 / direct=3 / weightb=1 / open_gop=0 / weightp=2 / keyint=250 / keyint_min=23 / scenecut=40 / intra_refresh=0 / rc_lookahead=60 / rc=crf / mbtree=1 / crf=18.0 / qcomp=0.60 / qpmin=10 / qpmax=69 / qpstep=4 / vbv_maxrate=40000 / vbv_bufsize=40000 / crf_max=0.0 / nal_hrd=none / filler=0 / frame-packing=4 / ip_ratio=1.40 / aq=1:1.00
Язык : English
Default : Нет
Forced : Нет
Аудио #1
Идентификатор : 2
Формат : AC-3
Формат/Информация : Audio Coding 3
Расширение режима : CM (complete main)
Параметр Endianness формата : Big
Идентификатор кодека : A_AC3
Продолжительность : 1 ч. 49 м.
Вид битрейта : Постоянный
Битрейт : 448 Кбит/сек
Каналы : 6 каналов
Расположение каналов : Front: L C R, Side: L R, LFE
Частота : 48,0 КГц
Битовая глубина : 16 бит
Метод сжатия : С потерями
Размер потока : 300 Мбайт (2%)
Язык : Russian
Default : Да
Forced : Нет
Аудио #2
Идентификатор : 3
Формат : AC-3
Формат/Информация : Audio Coding 3
Расширение режима : CM (complete main)
Параметр Endianness формата : Big
Идентификатор кодека : A_AC3
Продолжительность : 1 ч. 49 м.
Вид битрейта : Постоянный
Битрейт : 640 Кбит/сек
Каналы : 6 каналов
Расположение каналов : Front: L C R, Side: L R, LFE
Частота : 48,0 КГц
Битовая глубина : 16 бит
Метод сжатия : С потерями
Размер потока : 500 Мбайт (3%)
Язык : English
Default : Нет
Forced : Нет

Скриншоты




Display posts:    

Current time is: 13-Jul 11:10

All times are UTC ± 0


You cannot post new topics in this forum
You cannot reply to topics in this forum
You cannot edit your posts in this forum
You cannot delete your posts in this forum
You cannot vote in polls in this forum
You cannot attach files in this forum
You cannot download files in this forum

!ATTENTION!
The site does not give electronic versions of products, and is engaged only in a collecting and cataloguing of the references sent and published at a forum by our readers. If you are the legal owner of any submitted material and do not wish that the reference to it was in our catalogue, contact us and we shall immediately remove her. Files for an exchange on tracker are given by users of a site, and the administration does not bear the responsibility for their maintenance. The request to not fill in the files protected by copyrights, and also files of the illegal maintenance!