Важное объявление!
У Нас Все раздачи мультитрекерные, при нуле пиров в релизах, можете смело вставать на закачку!
 
Автор Сообщение

HUNTER

Стаж:
4 года 8 месяцев
Сообщений:
62003

Репутация: 101

[+] [-]
Вне форума [Профиль] [ЛС]

Gennady Golovkin vs. Martin Murray / Геннадий Головкин - Мартин Мюррей Дата/Год выпуска: 21.02.2015
Вид спорта: бокс
Язык комментариев: английский / интершум
WBA/IBO World Championships and WBA Interim World ChampionshipsGennady Golovkin (Kazakhstan) vs. Martin Murray (United Kingdom)Casino Monte-Carlo , 21 February 2015Автор записи:art-v-kКачество: HDTV 1080i-feed
Формат: TS
Видео: H264 ; 1920x1080, 29.970 fps, 24.8 Mbps
Аудио 1: MP2, 48 KHz, 2 ch, 384 kbps - английский
Аудио 2: MP2, 48 KHz, 2 ch, 384 kbps - интершум

Продолжительность

1:17:56

Скриншоты

Отчёт MediaInfo

Complete name : Gennady Golovkin vs. Martin Murray.WBA-IBO World Championships and WBA Interim World Championships(Monte-Carlo,21Feb2015).SportHD.org.tsFormat : MPEG-TSFile size : 14.1 GiBDuration : 1h 17mnOverall bit rate mode : VariableOverall bit rate : 25.9 Mbps
VideoID : 512 (0x200)Menu ID : 1 (0x1)Format : AVCFormat/Info : Advanced Video CodecFormat profile : High@L4.0Format settings, CABAC : YesFormat settings, ReFrames : 3 framesCodec ID : 27Duration : 1h 17mnBit rate mode : ConstantBit rate : 24.8 MbpsWidth : 1 920 pixelsHeight : 1 080 pixelsDisplay aspect ratio : 16:9Frame rate : 29.970 fpsColor space : YUVChroma subsampling : 4:2:0Bit depth : 8 bitsScan type : MBAFFScan order : Top Field FirstBits/(Pixel*Frame) : 0.400Stream size : 13.0 GiB (92%)Color primaries : BT.709Transfer characteristics : BT.709Matrix coefficients : BT.709Color range : Limited
Audio #1ID : 4112 (0x1010)Menu ID : 1 (0x1)Format : MPEG AudioFormat version : Version 1Format profile : Layer 2Codec ID : 3Duration : 1h 17mnBit rate mode : ConstantBit rate : 384 KbpsChannel(s) : 2 channelsSampling rate : 48.0 KHzCompression mode : LossyDelay relative to video : 21msStream size : 214 MiB (1%)Language : French
Audio #2ID : 4128 (0x1020)Menu ID : 1 (0x1)Format : MPEG AudioFormat version : Version 1Format profile : Layer 2Codec ID : 3Duration : 1h 17mnBit rate mode : ConstantBit rate : 384 KbpsChannel(s) : 2 channelsSampling rate : 48.0 KHzCompression mode : LossyDelay relative to video : 21msStream size : 214 MiB (1%)Language : English

_________________
Показать сообщения:    

Текущее время: Сегодня 12:12

Часовой пояс: GMT



Вы не можете начинать темы
Вы не можете отвечать на сообщения
Вы не можете редактировать свои сообщения
Вы не можете удалять свои сообщения
Вы не можете голосовать в опросах
Вы не можете прикреплять файлы к сообщениям
Вы не можете скачивать файлы
Наши партнеры: интернет магазин Ивановского трикотажа textilla.ru