Gennady Golovkin vs. Martin Murray / Геннадий Головкин - Мартин Мюррей [21.02.2015, Бокс, H.264, 60fps, EN, INT, HDTVRip 720p] :: Ивановский Торрент трекер
Важное объявление!
У Нас Все раздачи мультитрекерные, при нуле пиров в релизах, можете смело вставать на закачку!
Статистика раздачи
Размер:     |    Зарегистрирован:     |    Скачан:     |   
Нет
 
     
 
 
Автор Сообщение

HUNTER

Стаж:
4 года 11 месяцев
Сообщений:
66116

Репутация: 101

[+] [-]
Вне форума [Профиль] [ЛС]

Gennady Golovkin vs. Martin Murray / Геннадий Головкин - Мартин МюррейВид спорта: Бокс
Участники: Геннадий Головкин (Казахстан) - Мартин Мюррей (Великобритания)
Язык комментариев: английский, интершум
Описание: В княжестве Монако один из самых ярких нокаутёров современности 32-летний казахстанец Геннадий Головкин проведёт очередную защиту своих чемпионских титулов по версиям WBA, IBO и WBC Interim.
В качестве претендента в этом бою выступит ровесник Геннадия британец Мартин Мюррей, для которого это будет уже третья попытка обзавестись званием полновесного чемпиона мира. Многие подвергают сомнениям две предыдущие его титульные неудачи, считая, что в поединках против немца Феликса Штурма и аргентинца Серхио Габриэля Мартинеса судьи украли у Мюррея победы. Таким образом, теперь Мартину предоставляется возможность получить сатисфакцию за те неудачи. Однако на сей раз соперник у британца уж очень грозен, что подтверждают и букмекерские котировки, которые шансов на успех претенденту дают совсем мало.
Автор рипа: Striker (исходник 1080i-feed art-v-k)

Качество: HDTVRip
Формат: MKV
Видео кодек: H.264
Аудио кодек: AC3
Видео: 1280x720 (16:9), 59.94 fps, ~4000 Kbps
Аудио#1: 48 kHz, 2 channels, 192 Kbps (английский)
Аудио#2: 48 kHz, 2 channels, 192 Kbps (интершум)

MediaInfo

Format : Matroska
Format version : Version 4 / Version 2
File size : 2.37 GiB
Duration : 1h 17mn
Overall bit rate : 4 350 Kbps
Encoded date : UTC 2015-02-22 11:49:31
Writing application : mkvmerge v7.3.0 ('Nouages') 32bit built on Oct 22 2014 18:44:01
Writing library : libebml v1.3.0 + libmatroska v1.4.1
DURATION : 01:17:56.000000000
NUMBER_OF_FRAMES : 146125
NUMBER_OF_BYTES : 112224000
_STATISTICS_WRITING_APP : mkvmerge v7.3.0 ('Nouages') 32bit built on Oct 22 2014 18:44:01
_STATISTICS_WRITING_DATE_UTC : 2015-02-22 11:49:31
_STATISTICS_TAGS : BPS DURATION NUMBER_OF_FRAMES NUMBER_OF_BYTES
Video
ID : 1
Format : AVC
Format/Info : Advanced Video Codec
Format profile : High@L4.0
Format settings, CABAC : Yes
Format settings, ReFrames : 7 frames
Codec ID : V_MPEG4/ISO/AVC
Duration : 1h 17mn
Bit rate : 4 000 Kbps
Width : 1 280 pixels
Height : 720 pixels
Display aspect ratio : 16:9
Frame rate mode : Constant
Frame rate : 60.000 fps
Original frame rate : 59.940 fps
Color space : YUV
Chroma subsampling : 4:2:0
Bit depth : 8 bits
Scan type : Progressive
Bits/(Pixel*Frame) : 0.072
Stream size : 2.11 GiB (89%)
Writing library : x264 core 130 r2273 b3065e6
Encoding settings : cabac=1 / ref=7 / deblock=1:0:0 / analyse=0x3:0x113 / me=hex / subme=7 / psy=1 / psy_rd=1.00:0.00 / mixed_ref=1 / me_range=16 / chroma_me=1 / trellis=1 / 8x8dct=1 / cqm=0 / deadzone=21,11 / fast_pskip=1 / chroma_qp_offset=-2 / threads=12 / lookahead_threads=2 / sliced_threads=0 / nr=0 / decimate=1 / interlaced=0 / bluray_compat=0 / constrained_intra=0 / bframes=7 / b_pyramid=2 / b_adapt=1 / b_bias=0 / direct=1 / weightb=1 / open_gop=0 / weightp=2 / keyint=600 / keyint_min=60 / scenecut=40 / intra_refresh=0 / rc_lookahead=40 / rc=abr / mbtree=1 / bitrate=4000 / ratetol=1.0 / qcomp=0.60 / qpmin=0 / qpmax=69 / qpstep=4 / ip_ratio=1.40 / aq=1:1.00
Language : English
Default : Yes
Forced : No
Color primaries : BT.709
Transfer characteristics : BT.709
Matrix coefficients : BT.709
Audio #1
ID : 2
Format : AC-3
Format/Info : Audio Coding 3
Mode extension : CM (complete main)
Format settings, Endianness : Big
Codec ID : A_AC3
Duration : 1h 17mn
Bit rate mode : Constant
Bit rate : 192 Kbps
Channel count : 2 channels
Channel positions : Front: L R
Sampling rate : 48.0 KHz
Bit depth : 16 bits
Compression mode : Lossy
Stream size : 107 MiB (4%)
Language : English
Default : Yes
Forced : No
Audio #2
ID : 3
Format : AC-3
Format/Info : Audio Coding 3
Mode extension : CM (complete main)
Format settings, Endianness : Big
Codec ID : A_AC3
Duration : 1h 17mn
Bit rate mode : Constant
Bit rate : 192 Kbps
Channel count : 2 channels
Channel positions : Front: L R
Sampling rate : 48.0 KHz
Bit depth : 16 bits
Compression mode : Lossy
Stream size : 107 MiB (4%)
Default : No
Forced : No

Продолжительность

01:17:56

Скриншоты


Итог

скрытый текст
Golovkin TKO round 11(12)

_________________
Показать сообщения:    

Текущее время: Сегодня 11:03

Часовой пояс: GMT



Вы не можете начинать темы
Вы не можете отвечать на сообщения
Вы не можете редактировать свои сообщения
Вы не можете удалять свои сообщения
Вы не можете голосовать в опросах
Вы не можете прикреплять файлы к сообщениям
Вы не можете скачивать файлы