Важное объявление!
У Нас Все раздачи мультитрекерные, при нуле пиров в релизах, можете смело вставать на закачку!
Статистика раздачи
Размер:     |    Зарегистрирован:     |    Скачан:     |   
Нет
 
     
 
 
Автор Сообщение

HUNTER

Стаж:
5 лет
Сообщений:
68391

Репутация: 101

[+] [-]
Вне форума [Профиль] [ЛС]

Курсы прогрраммирования на JavaScript
Год выпуска: 2015
Производитель: GeekBrains
Сайт производителя: geekbrains.ru
Автор: Игорь Долгов
Продолжительность: 8 часов 3 минут
Тип раздаваемого материала: Видеоурок
Язык: Русский
Описание: Чему Вы научитесь
•Освоите фундаментальные основы программирования;
•Познакомитесь с основными терминами и понятиями;
•Научитесь разрабатывать алгоритмы;
•Получите реальный опыт разработки;
•Сможете писать простые программы;
•Познакомитесь с языками и направлениями программирования;
•Сможете четко определиться с направлением ваших интересов;
•Получите материалы и инструкции для дальнейшего развития

Содержание

Урок 1. Что такое программа и где она выполняется
Где выполняются программы; устройство компьютера, и что нас в нём интересует; представление данных в памяти компьютера; низкоуровневые языки программирования; высокоуровневые языки программирования
Урок 2. Постановка задачи и алгоритмы
Что должна сделать программа; алгоритмы; переменные; ветвления (в алгоритмах); примеры задач и алгоритмов их решения
Урок 3. Основы программирования
Компилируемые и интерпретируемые языки программирования; практика – пишем Hello World; переменные; типы данных; ветвления (в коде); функции
Урок 4. Языки программирования
Циклы; массивы; обзор современных языков программирования и их назначения

MediaInfo

General
Complete name : C:\Users\OrenniorBvs\Downloads\GeekBrains_osnovy\zanatie_01_03.12.2015.mp4
Format : MPEG-4
Format profile : Base Media
Codec ID : isom
File size : 297 MiB
Duration : 1h 52mn
Overall bit rate : 369 Kbps
Writing application : Lavf54.29.104
Video
ID : 1
Format : AVC
Format/Info : Advanced Video Codec
Format profile : High@L3.1
Format settings, CABAC : Yes
Format settings, ReFrames : 4 frames
Codec ID : avc1
Codec ID/Info : Advanced Video Coding
Duration : 1h 52mn
Bit rate : 298 Kbps
Nominal bit rate : 384 Kbps
Width : 1 280 pixels
Height : 720 pixels
Display aspect ratio : 16:9
Frame rate mode : Variable
Frame rate : 15.000 fps
Minimum frame rate : 14.925 fps
Maximum frame rate : 15.152 fps
Color space : YUV
Chroma subsampling : 4:2:0
Bit depth : 8 bits
Scan type : Progressive
Bits/(Pixel*Frame) : 0.022
Stream size : 240 MiB (81%)
Writing library : x264 core 132
Encoding settings : cabac=1 / ref=1 / deblock=1:0:0 / analyse=0x3:0x113 / me=hex / subme=2 / psy=1 / psy_rd=1.00:0.00 / mixed_ref=0 / me_range=16 / chroma_me=1 / trellis=0 / 8x8dct=1 / cqm=0 / deadzone=21,11 / fast_pskip=1 / chroma_qp_offset=0 / threads=4 / lookahead_threads=1 / sliced_threads=0 / nr=0 / decimate=1 / interlaced=0 / bluray_compat=0 / constrained_intra=0 / bframes=3 / b_pyramid=2 / b_adapt=1 / b_bias=0 / direct=1 / weightb=1 / open_gop=0 / weightp=1 / keyint=30 / keyint_min=3 / scenecut=40 / intra_refresh=0 / rc_lookahead=10 / rc=cbr / mbtree=1 / bitrate=384 / ratetol=1.0 / qcomp=0.60 / qpmin=0 / qpmax=69 / qpstep=4 / vbv_maxrate=384 / vbv_bufsize=512 / nal_hrd=none / ip_ratio=1.40 / aq=1:1.00
Audio
ID : 2
Format : AAC
Format/Info : Advanced Audio Codec
Format profile : LC
Codec ID : 40
Duration : 1h 52mn
Bit rate mode : Constant
Bit rate : 64.0 Kbps
Channel(s) : 2 channels
Channel positions : Front: L R
Sampling rate : 44.1 KHz
Compression mode : Lossy
Stream size : 51.6 MiB (17%)

Скриншоты



_________________
Показать сообщения:    

Текущее время: Сегодня 19:43

Часовой пояс: GMT



Вы не можете начинать темы
Вы не можете отвечать на сообщения
Вы не можете редактировать свои сообщения
Вы не можете удалять свои сообщения
Вы не можете голосовать в опросах
Вы не можете прикреплять файлы к сообщениям
Вы не можете скачивать файлы