Важное объявление!
У Нас Все раздачи мультитрекерные, при нуле пиров в релизах, можете смело вставать на закачку!
Статистика раздачи
Размер:     |    Зарегистрирован:     |    Скачан:     |   
Нет
 
     
 
 
Автор Сообщение

HUNTER

Стаж:
5 лет
Сообщений:
67935

Репутация: 101

[+] [-]
Вне форума [Профиль] [ЛС]

Hardcore 3 (Your Date With The Devil)
Жанр: Gabber, Happy Hardcore
Страна-производитель диска: Netherlands
Год издания: 1996
Издатель (лейбл): EVA
Номер по каталогу: 74321 376602
Аудиокодек: FLAC (*.flac)
Тип рипа: image+.cue
Битрейт аудио: lossless
Продолжительность: 71:36
Источник (релизер): Рип с диска из собственной коллекции.
Наличие сканов в содержимом раздачи: нет
Треклист:
1 Music Instructor – Hymn 5:24
2 DJ Paul Elstak – The Promised Land (Forze Mix) 5:26
3 Party Animals – Hava Naquila (Tekno Mafia Mix) 5:04
4 DJ Gizmo – The Dope Man 3:40
5 DJ Fuckface – Do Wacha Wanna Do (Yeah!) 5:38
6 Dark Raver – Let It Roll (Bass-D & King Matthew Remix) 4:56
7 Dune – Rainbow To The Stars (12" Mix) 4:52
8 A.I.R. Miles – Children (DJ Isaac Remix) 4:40
9 Body Parts – Without You (Spiritual Child Vs DJ Jordens Madman's Mix) 3:50
10 General Noise – Wanna Rock Your Body 4:14
11 Activator – Yaah! 4:41
12 Omar Santana – Mad Creator 4:34
13 Nightraver And DJ Trevor – The Revolution (Hardcore Version) 4:09
14 Semzer Sounds Feat. DJ Semzer & DJ Zoner – Dreamer 5:04
15 DJ Rob Feat. MC Hughie Babe – DJ Rob's 20 Seconds 5:15

Лог создания рипа

Exact Audio Copy V1.0 beta 3 from 29. August 2011
EAC extraction logfile from 26. November 2012, 15:10
Various / Hardcore 3
Used drive : PIONEER DVD-RW DVR-218L Adapter: 2 ID: 0
Read mode : SecureUtilize accurate stream : YesDefeat audio cache : YesMake use of C2 pointers : No
Read offset correction : 6Overread into Lead-In and Lead-Out : NoFill up missing offset samples with silence : YesDelete leading and trailing silent blocks : NoNull samples used in CRC calculations : YesUsed interface : Native Win32 interface for Win NT & 2000
Used output format : User Defined EncoderSelected bitrate : 128 kBit/sQuality : HighAdd ID3 tag : NoCommand line compressor : C:\Program Files (x86)\Exact Audio Copy\Flac\flac.exeAdditional command line options : -V -8 -T "Date=%year%" -T "Genre=%genre%" %source%
TOC of the extracted CD
Track | Start | Length | Start sector | End sector --------------------------------------------------------- 1 | 0:00.00 | 5:23.50 | 0 | 24274 2 | 5:23.50 | 5:26.60 | 24275 | 48784 3 | 10:50.35 | 5:04.70 | 48785 | 71654 4 | 15:55.30 | 3:40.50 | 71655 | 88204 5 | 19:36.05 | 5:38.62 | 88205 | 113616 6 | 25:14.67 | 4:56.38 | 113617 | 135854 7 | 30:11.30 | 4:52.65 | 135855 | 157819 8 | 35:04.20 | 4:40.10 | 157820 | 178829 9 | 39:44.30 | 3:50.45 | 178830 | 196124 10 | 43:35.00 | 4:14.62 | 196125 | 215236 11 | 47:49.62 | 4:41.30 | 215237 | 236341 12 | 52:31.17 | 4:34.08 | 236342 | 256899 13 | 57:05.25 | 4:09.55 | 256900 | 275629 14 | 61:15.05 | 5:04.05 | 275630 | 298434 15 | 66:19.10 | 5:17.22 | 298435 | 322231
Range status and errors
Selected range
Filename F:\Новая папка\Various - Hardcore 3.wav
Peak level 100.0 % Extraction speed 2.1 X Range quality 99.9 % Test CRC 0E37136E Copy CRC 0E37136E Copy OK
No errors occurred
AccurateRip summary
Track 1 cannot be verified as accurate (confidence 1) [93B42DAF], AccurateRip returned [44CD0593] (AR v2)Track 2 cannot be verified as accurate (confidence 1) [493F8601], AccurateRip returned [040298E7] (AR v2)Track 3 cannot be verified as accurate (confidence 1) [B5076FCD], AccurateRip returned [F1586A62] (AR v2)Track 4 not present in databaseTrack 5 not present in databaseTrack 6 not present in databaseTrack 7 not present in databaseTrack 8 not present in databaseTrack 9 not present in databaseTrack 10 not present in databaseTrack 11 not present in databaseTrack 12 not present in databaseTrack 13 not present in databaseTrack 14 not present in databaseTrack 15 not present in database
3 track(s) could not be verified as accurate12 track(s) not present in the AccurateRip database
No tracks could be verified as accurateYou may have a different pressing from the one(s) in the database
End of status report
==== Log checksum CDC92E40A83B1F6976FE8C8DCE47E85FD0531D9159A04F2F48B41740D4AF6E39 ====
Discogs

_________________
Показать сообщения:    

Текущее время: Сегодня 06:52

Часовой пояс: GMT



Вы не можете начинать темы
Вы не можете отвечать на сообщения
Вы не можете редактировать свои сообщения
Вы не можете удалять свои сообщения
Вы не можете голосовать в опросах
Вы не можете прикреплять файлы к сообщениям
Вы не можете скачивать файлы