Важное объявление!
У Нас Все раздачи мультитрекерные, при нуле пиров в релизах, можете смело вставать на закачку!
 
Автор Сообщение

HUNTER

Стаж:
4 года 9 месяцев
Сообщений:
65047

Репутация: 101

[+] [-]
Вне форума [Профиль] [ЛС]

Real Hardcore Жанр: Gabber, Happy Hardcore
Год издания: 1996-1997
Аудиокодек: FLAC
Тип рипа: tracks+.cue
Битрейт аудио: lossless
Продолжительность: 06:23:00
Источник: Рип с дисков из собственной коллекции.

Real Hardcore 1996

Real Hardcore
Жанр: Gabber, Happy Hardcore
Носитель: CD
Страна-производитель диска (релиза): Netherlands
Год издания: 1996
Издатель (лейбл): Arcade
Номер по каталогу: 01.10322
Аудиокодек: FLAC (*.flac)
Тип рипа: tracks+.cue
Битрейт аудио: lossless
Продолжительность: 01:17:45
Источник (релизер): Рип с диска из собственной коллекции.
Наличие сканов в содержимом раздачи: нет
Треклист:
1. Critical Mass - Believe in the Future (DJ Weirdo & DJ Sim Future Mix) (6:01)
2. DJ Paul & Lenny Dee - I Like Hardcore (5:17)
3. Surrogate Daddy - Fable (A.I.R. Miles Remix) (4:03)
4. Nina Feranzano & DJ Buzz Fuzz - Keep It Up (4:46)
5. Rob Gee - Ecstasy, You Got What I Need (4:09)
6. Marshall Masters - Stereo Murder (4:07)
7. Mindtrust - Ravers Groove (Cixx's Hardcore Remix) (4:08)
8. Not-A-DJ Feat. Nathalie - Out of Control (The Stunned Guys Remix) (3:35)
9. Technohead - Happy Birthday (Scott Brown's Twisted Vinyl Mix) (4:51)
10. DJ Belirium & DJ Weirdo - Open Your Eyez (4:49)
11. Controller 1 - Nonono (5:13)
12. DJ E-Rick & Tactic - Hysterical Drumbeats (Original Mix) (3:54)
13. 4 Tune Fairytales - My Little Fantasy (Scarface's Remix) (4:09)
14. Naughty Boys - Innocent Amusement (The End Mix) (5:31)
15. Scott Brown - Synthetic (4:10)
16. DJ Waxweazle - Legs ('96 Hardcore Remix) (4:04)
17. DJ Isaac - We Like Mariuana (DJ Paul Remix) (4:58)
Лог создания рипа
Exact Audio Copy V1.0 beta 3 from 29. August 2011
EAC extraction logfile from 18. July 2015, 16:38
Various / Real Hardcore
Used drive : PIONEER DVD-RW DVR-111D Adapter: 0 ID: 0
Read mode : SecureUtilize accurate stream : YesDefeat audio cache : YesMake use of C2 pointers : No
Read offset correction : 48Overread into Lead-In and Lead-Out : NoFill up missing offset samples with silence : YesDelete leading and trailing silent blocks : NoNull samples used in CRC calculations : YesUsed interface : Installed external ASPI interfaceGap handling : Appended to previous track
Used output format : User Defined EncoderSelected bitrate : 128 kBit/sQuality : HighAdd ID3 tag : NoCommand line compressor : C:\Program Files (x86)\Exact Audio Copy\Flac\flac.exeAdditional command line options : -8 -V -T "ARTIST=%artist%" -T "TITLE=%title%" -T "ALBUM=%albumtitle%" -T "DATE=%year%" -T "TRACKNUMBER=%tracknr%" -T "TOTALTRACKS=%numtracks%" -T "DISCNUMBER=%cdnumber%" -T "TOTALDISCS=%totalcds%" -T "PERFORMER=%albuminterpret%" -T "COMPOSER=%composer%" -T "GENRE=%genre%" -T "ALBUMARTIST=%albumartist%" -T "ALBUM ARTIST=%albumartist%" -T "COMMENT=%comment%" %source%
TOC of the extracted CD
Track | Start | Length | Start sector | End sector --------------------------------------------------------- 1 | 0:00.33 | 6:01.05 | 33 | 27112 2 | 6:01.38 | 5:17.37 | 27113 | 50924 3 | 11:19.00 | 4:03.45 | 50925 | 69194 4 | 15:22.45 | 4:46.68 | 69195 | 90712 5 | 20:09.38 | 4:09.37 | 90713 | 109424 6 | 24:19.00 | 4:07.43 | 109425 | 127992 7 | 28:26.43 | 4:08.47 | 127993 | 146639 8 | 32:35.15 | 3:35.50 | 146640 | 162814 9 | 36:10.65 | 4:51.68 | 162815 | 184707 10 | 41:02.58 | 4:49.32 | 184708 | 206414 11 | 45:52.15 | 5:13.23 | 206415 | 229912 12 | 51:05.38 | 3:54.15 | 229913 | 247477 13 | 54:59.53 | 4:09.65 | 247478 | 266217 14 | 59:09.43 | 5:31.47 | 266218 | 291089 15 | 64:41.15 | 4:10.28 | 291090 | 309867 16 | 68:51.43 | 4:04.12 | 309868 | 328179 17 | 72:55.55 | 4:58.28 | 328180 | 350557
Track 1
Filename D:\Новая папка\01. Critical Mass - Believe in the Future (DJ Weirdo & DJ Sim Future Mix).wav
Pre-gap length 0:00:02.33
Peak level 98.0 % Extraction speed 5.1 X Track quality 100.0 % Test CRC B3A0DEFF Copy CRC B3A0DEFF Cannot be verified as accurate (confidence 1) [C207436F], AccurateRip returned [8F556E65] (AR v2) Copy OK
Track 2
Filename D:\Новая папка\02. DJ Paul & Lenny Dee - I Like Hardcore.wav
Pre-gap length 0:00:00.68
Peak level 98.6 % Extraction speed 5.6 X Track quality 100.0 % Test CRC 7FCC372F Copy CRC 7FCC372F Cannot be verified as accurate (confidence 1) [2367796C], AccurateRip returned [64D8412B] (AR v2) Copy OK
Track 3
Filename D:\Новая папка\03. Surrogate Daddy - Fable (A.I.R. Miles Remix).wav
Pre-gap length 0:00:00.52
Peak level 98.4 % Extraction speed 5.8 X Track quality 100.0 % Test CRC 1B1AD253 Copy CRC 1B1AD253 Cannot be verified as accurate (confidence 1) [E12947B2], AccurateRip returned [10645914] (AR v2) Copy OK
Track 4
Filename D:\Новая папка\04. Nina Feranzano & DJ Buzz Fuzz - Keep It Up.wav
Pre-gap length 0:00:00.47
Peak level 98.4 % Extraction speed 6.3 X Track quality 100.0 % Test CRC 83B21D4F Copy CRC 83B21D4F Cannot be verified as accurate (confidence 1) [9A9C62EB], AccurateRip returned [B55D9E24] (AR v2) Copy OK
Track 5
Filename D:\Новая папка\05. Rob Gee - Ecstasy, You Got What I Need.wav
Pre-gap length 0:00:00.40
Peak level 95.1 % Extraction speed 6.5 X Track quality 100.0 % Test CRC 1BE1B02D Copy CRC 1BE1B02D Cannot be verified as accurate (confidence 1) [A09795E2], AccurateRip returned [03939A87] (AR v2) Copy OK
Track 6
Filename D:\Новая папка\06. Marshall Masters - Stereo Murder.wav
Pre-gap length 0:00:00.47
Peak level 79.4 % Extraction speed 6.8 X Track quality 100.0 % Test CRC 86B73ABF Copy CRC 86B73ABF Cannot be verified as accurate (confidence 1) [F3830E8A], AccurateRip returned [B1944069] (AR v2) Copy OK
Track 7
Filename D:\Новая папка\07. Mindtrust - Ravers Groove (Cixx's Hardcore Remix).wav
Pre-gap length 0:00:00.45
Peak level 98.3 % Extraction speed 6.3 X Track quality 99.9 % Test CRC 5B4CD0D7 Copy CRC 5B4CD0D7 Cannot be verified as accurate (confidence 1) [0EAB1AEB], AccurateRip returned [DF4C3F28] (AR v2) Copy OK
Track 8
Filename D:\Новая папка\08. Not-A-DJ Feat. Nathalie - Out of Control (The Stunned Guys Remix).wav
Pre-gap length 0:00:00.40
Peak level 98.3 % Extraction speed 7.2 X Track quality 100.0 % Test CRC C2556D24 Copy CRC C2556D24 Cannot be verified as accurate (confidence 1) [C8F6D9CB], AccurateRip returned [4B1AD3A4] (AR v2) Copy OK
Track 9
Filename D:\Новая папка\09. Technohead - Happy Birthday (Scott Brown's Twisted Vinyl Mix).wav
Pre-gap length 0:00:00.42
Peak level 98.2 % Extraction speed 7.7 X Track quality 100.0 % Test CRC 9F4B941F Copy CRC 9F4B941F Cannot be verified as accurate (confidence 1) [D0B3FCAC], AccurateRip returned [B319FB3B] (AR v2) Copy OK
Track 10
Filename D:\Новая папка\10. DJ Belirium & DJ Weirdo - Open Your Eyez.wav
Pre-gap length 0:00:00.35
Peak level 98.0 % Extraction speed 7.9 X Track quality 100.0 % Test CRC 46927789 Copy CRC 46927789 Cannot be verified as accurate (confidence 1) [844A1981], AccurateRip returned [F41F2A69] (AR v2) Copy OK
Track 11
Filename D:\Новая папка\11. Controller 1 - Nonono.wav
Pre-gap length 0:00:00.50
Peak level 98.0 % Extraction speed 8.3 X Track quality 100.0 % Test CRC C74F0C38 Copy CRC C74F0C38 Cannot be verified as accurate (confidence 1) [167BC414], AccurateRip returned [5A0C6CAF] (AR v2) Copy OK
Track 12
Filename D:\Новая папка\12. DJ E-Rick & Tactic - Hysterical Drumbeats (Original Mix).wav
Pre-gap length 0:00:00.53
Peak level 97.9 % Extraction speed 8.2 X Track quality 100.0 % Test CRC 95095F65 Copy CRC 95095F65 Cannot be verified as accurate (confidence 1) [637E9E0A], AccurateRip returned [1FDAC571] (AR v2) Copy OK
Track 13
Filename D:\Новая папка\13. 4 Tune Fairytales - My Little Fantasy (Scarface's Remix).wav
Pre-gap length 0:00:00.38
Peak level 98.5 % Extraction speed 8.4 X Track quality 100.0 % Test CRC CF5F7478 Copy CRC CF5F7478 Cannot be verified as accurate (confidence 1) [605DB96E], AccurateRip returned [B23255A4] (AR v2) Copy OK
Track 14
Filename D:\Новая папка\14. Naughty Boys - Innocent Amusement (The End Mix).wav
Pre-gap length 0:00:00.58
Peak level 61.7 % Extraction speed 9.1 X Track quality 100.0 % Test CRC 811AD648 Copy CRC 811AD648 Cannot be verified as accurate (confidence 1) [FC99B711], AccurateRip returned [9474F0F0] (AR v2) Copy OK
Track 15
Filename D:\Новая папка\15. Scott Brown - Synthetic.wav
Pre-gap length 0:00:00.47
Peak level 98.1 % Extraction speed 9.0 X Track quality 100.0 % Test CRC FB125D2A Copy CRC FB125D2A Cannot be verified as accurate (confidence 1) [416CA234], AccurateRip returned [C81BE09D] (AR v2) Copy OK
Track 16
Filename D:\Новая папка\16. DJ Waxweazle - Legs ('96 Hardcore Remix).wav
Pre-gap length 0:00:00.48
Peak level 98.1 % Extraction speed 9.1 X Track quality 100.0 % Test CRC D3D86C23 Copy CRC D3D86C23 Cannot be verified as accurate (confidence 1) [64790419], AccurateRip returned [C33EB6F2] (AR v2) Copy OK
Track 17
Filename D:\Новая папка\17. DJ Isaac - We Like Mariuana (DJ Paul Remix).wav
Pre-gap length 0:00:00.50
Peak level 98.0 % Extraction speed 9.5 X Track quality 100.0 % Test CRC 9AE7C8E2 Copy CRC 9AE7C8E2 Cannot be verified as accurate (confidence 1) [B33EB63D], AccurateRip returned [F7368CAA] (AR v2) Copy OK
No tracks could be verified as accurateYou may have a different pressing from the one(s) in the database
No errors occurred
End of status report
==== Log checksum D70D9CF4A2569583E0EBE8FFA3A12317F94520774D9090091171883E7AB727EE ====

Содержание индексной карты (.CUE)

REM GENRE OtherREM DATE 1996REM DISCID EC124211REM COMMENT "ExactAudioCopy v1.0b3"PERFORMER "Various"TITLE "Real Hardcore"FILE "01. Critical Mass - Believe in the Future (DJ Weirdo & DJ Sim Future Mix).wav" WAVE TRACK 01 AUDIO TITLE "Believe in the Future (DJ Weirdo & DJ Sim Future Mix)" PERFORMER "Critical Mass" PREGAP 00:00:33 INDEX 01 00:00:00 TRACK 02 AUDIO TITLE "I Like Hardcore" PERFORMER "DJ Paul & Lenny Dee" INDEX 00 06:00:12FILE "02. DJ Paul & Lenny Dee - I Like Hardcore.wav" WAVE INDEX 01 00:00:00 TRACK 03 AUDIO TITLE "Fable (A.I.R. Miles Remix)" PERFORMER "Surrogate Daddy" INDEX 00 05:16:60FILE "03. Surrogate Daddy - Fable (A.I.R. Miles Remix).wav" WAVE INDEX 01 00:00:00 TRACK 04 AUDIO TITLE "Keep It Up" PERFORMER "Nina Feranzano & DJ Buzz Fuzz" INDEX 00 04:02:73FILE "04. Nina Feranzano & DJ Buzz Fuzz - Keep It Up.wav" WAVE INDEX 01 00:00:00 TRACK 05 AUDIO TITLE "Ecstasy, You Got What I Need" PERFORMER "Rob Gee" INDEX 00 04:46:28FILE "05. Rob Gee - Ecstasy, You Got What I Need.wav" WAVE INDEX 01 00:00:00 TRACK 06 AUDIO TITLE "Stereo Murder" PERFORMER "Marshall Masters" INDEX 00 04:08:65FILE "06. Marshall Masters - Stereo Murder.wav" WAVE INDEX 01 00:00:00 TRACK 07 AUDIO TITLE "Ravers Groove (Cixx's Hardcore Remix)" PERFORMER "Mindtrust" INDEX 00 04:06:73FILE "07. Mindtrust - Ravers Groove (Cixx's Hardcore Remix).wav" WAVE INDEX 01 00:00:00 TRACK 08 AUDIO TITLE "Out of Control (The Stunned Guys Remix)" PERFORMER "Not-A-DJ Feat. Nathalie" INDEX 00 04:08:07FILE "08. Not-A-DJ Feat. Nathalie - Out of Control (The Stunned Guys Remix).wav" WAVE INDEX 01 00:00:00 TRACK 09 AUDIO TITLE "Happy Birthday (Scott Brown's Twisted Vinyl Mix)" PERFORMER "Technohead" INDEX 00 03:35:08FILE "09. Technohead - Happy Birthday (Scott Brown's Twisted Vinyl Mix).wav" WAVE INDEX 01 00:00:00 TRACK 10 AUDIO TITLE "Open Your Eyez" PERFORMER "DJ Belirium & DJ Weirdo" INDEX 00 04:51:33FILE "10. DJ Belirium & DJ Weirdo - Open Your Eyez.wav" WAVE INDEX 01 00:00:00 TRACK 11 AUDIO TITLE "Nonono" PERFORMER "Controller 1" INDEX 00 04:48:57FILE "11. Controller 1 - Nonono.wav" WAVE INDEX 01 00:00:00 TRACK 12 AUDIO TITLE "Hysterical Drumbeats (Original Mix)" PERFORMER "DJ E-Rick & Tactic" INDEX 00 05:12:45FILE "12. DJ E-Rick & Tactic - Hysterical Drumbeats (Original Mix).wav" WAVE INDEX 01 00:00:00 TRACK 13 AUDIO TITLE "My Little Fantasy (Scarface's Remix)" PERFORMER "4 Tune Fairytales" INDEX 00 03:53:52FILE "13. 4 Tune Fairytales - My Little Fantasy (Scarface's Remix).wav" WAVE INDEX 01 00:00:00 TRACK 14 AUDIO TITLE "Innocent Amusement (The End Mix)" PERFORMER "Naughty Boys" INDEX 00 04:09:07FILE "14. Naughty Boys - Innocent Amusement (The End Mix).wav" WAVE INDEX 01 00:00:00 TRACK 15 AUDIO TITLE "Synthetic" PERFORMER "Scott Brown" INDEX 00 05:31:00FILE "15. Scott Brown - Synthetic.wav" WAVE INDEX 01 00:00:00 TRACK 16 AUDIO TITLE "Legs ('96 Hardcore Remix)" PERFORMER "DJ Waxweazle" INDEX 00 04:09:55FILE "16. DJ Waxweazle - Legs ('96 Hardcore Remix).wav" WAVE INDEX 01 00:00:00 TRACK 17 AUDIO TITLE "We Like Mariuana (DJ Paul Remix)" PERFORMER "DJ Isaac" INDEX 00 04:03:37FILE "17. DJ Isaac - We Like Mariuana (DJ Paul Remix).wav" WAVE INDEX 01 00:00:00

Real Hardcore 2 1996

Real Hardcore 2
Жанр: Gabber, Happy Hardcore
Носитель: CD
Страна-производитель диска (релиза): Netherlands
Год издания: 1996
Издатель (лейбл): Arcade
Номер по каталогу: 01.10370
Аудиокодек: FLAC (*.flac)
Тип рипа: tracks+.cue
Битрейт аудио: lossless
Продолжительность: 01:15:18
Источник (релизер): Рип с диска из собственной коллекции.
Наличие сканов в содержимом раздачи: нет
Треклист:
1. Dj Isaac - I'm A Gabber Baby (4:37)
2. 4 Tune Fairytales - My Little Fantasy (Bass D & King Matthew Mix) (4:26)
3. Dj Paul - Rave On (The Force Mix) (4:34)
4. Bodylotion - Always Hardcore (3:11)
5. The Prophet - I Can't Stand It (3:56)
6. Technohead - Bananane (Hardcore Edit) (4:48)
7. Bob Gee - Exctasy, You Got What I Need (4:49)
8. Dj Delirium - Your Local Dj (5:02)
9. Pulp Shock - Far Away (Dj Sim's Hardcore Mix) (3:53)
10. Party Animals - Misadventures Of The Spiegelman (4:18)
11. Rotterdam Terror Corps - Hardcore Slam (5:05)
12. Dj Buzz Fuzz - Dreamgirl (4:58)
13. Dutch Verg - Bestial (3:31)
14. James Daltan - The Candle (4:23)
15. English Muffin - Dum Dum (4:24)
16. Dj Waxweazle & Dj Berry - We Are Animals (4:34)
17. Dj Gizmo - The Dope Man (Buzz Fuzz Remix) (4:49)
Лог создания рипа
Exact Audio Copy V1.0 beta 3 from 29. August 2011
EAC extraction logfile from 18. July 2015, 17:03
Various / Real Hardcore 2
Used drive : PIONEER DVD-RW DVR-111D Adapter: 0 ID: 0
Read mode : SecureUtilize accurate stream : YesDefeat audio cache : YesMake use of C2 pointers : No
Read offset correction : 48Overread into Lead-In and Lead-Out : NoFill up missing offset samples with silence : YesDelete leading and trailing silent blocks : NoNull samples used in CRC calculations : YesUsed interface : Installed external ASPI interfaceGap handling : Appended to previous track
Used output format : User Defined EncoderSelected bitrate : 128 kBit/sQuality : HighAdd ID3 tag : NoCommand line compressor : C:\Program Files (x86)\Exact Audio Copy\Flac\flac.exeAdditional command line options : -8 -V -T "ARTIST=%artist%" -T "TITLE=%title%" -T "ALBUM=%albumtitle%" -T "DATE=%year%" -T "TRACKNUMBER=%tracknr%" -T "TOTALTRACKS=%numtracks%" -T "DISCNUMBER=%cdnumber%" -T "TOTALDISCS=%totalcds%" -T "PERFORMER=%albuminterpret%" -T "COMPOSER=%composer%" -T "GENRE=%genre%" -T "ALBUMARTIST=%albumartist%" -T "ALBUM ARTIST=%albumartist%" -T "COMMENT=%comment%" %source%
TOC of the extracted CD
Track | Start | Length | Start sector | End sector --------------------------------------------------------- 1 | 0:00.00 | 4:37.07 | 0 | 20781 2 | 4:37.07 | 4:26.25 | 20782 | 40756 3 | 9:03.32 | 4:34.73 | 40757 | 61379 4 | 13:38.30 | 3:11.32 | 61380 | 75736 5 | 16:49.62 | 3:56.40 | 75737 | 93476 6 | 20:46.27 | 4:48.30 | 93477 | 115106 7 | 25:34.57 | 4:49.35 | 115107 | 136816 8 | 30:24.17 | 5:02.10 | 136817 | 159476 9 | 35:26.27 | 3:53.35 | 159477 | 176986 10 | 39:19.62 | 4:18.63 | 176987 | 196399 11 | 43:38.50 | 5:05.12 | 196400 | 219286 12 | 48:43.62 | 4:58.65 | 219287 | 241701 13 | 53:42.52 | 3:31.38 | 241702 | 257564 14 | 57:14.15 | 4:23.60 | 257565 | 277349 15 | 61:38.00 | 4:24.17 | 277350 | 297166 16 | 66:02.17 | 4:34.43 | 297167 | 317759 17 | 70:36.60 | 4:49.17 | 317760 | 339451
Track 1
Filename D:\Новая папка\01. Dj Isaac - I'm A Gabber Baby.wav
Pre-gap length 0:00:02.00
Peak level 99.9 % Extraction speed 4.9 X Track quality 100.0 % Test CRC F4BC67D6 Copy CRC F4BC67D6 Accurately ripped (confidence 1) [C8AA8036] (AR v2) Copy OK
Track 2
Filename D:\Новая папка\02. 4 Tune Fairytales - My Little Fantasy (Bass D & King Matthew Mix).wav
Pre-gap length 0:00:00.27
Peak level 94.3 % Extraction speed 5.3 X Track quality 100.0 % Test CRC CD7EE2D2 Copy CRC CD7EE2D2 Accurately ripped (confidence 1) [0C148D58] (AR v2) Copy OK
Track 3
Filename D:\Новая папка\03. Dj Paul - Rave On (The Force Mix).wav
Pre-gap length 0:00:00.32
Peak level 63.0 % Extraction speed 5.8 X Track quality 100.0 % Test CRC 63687FF5 Copy CRC 63687FF5 Accurately ripped (confidence 1) [FA38A07A] (AR v2) Copy OK
Track 4
Filename D:\Новая папка\04. Bodylotion - Always Hardcore.wav
Pre-gap length 0:00:00.45
Peak level 86.0 % Extraction speed 5.8 X Track quality 100.0 % Test CRC BF8560CF Copy CRC BF8560CF Accurately ripped (confidence 1) [88D3D169] (AR v2) Copy OK
Track 5
Filename D:\Новая папка\05. The Prophet - I Can't Stand It.wav
Pre-gap length 0:00:00.07
Peak level 84.1 % Extraction speed 6.3 X Track quality 100.0 % Test CRC 57748BEB Copy CRC 57748BEB Accurately ripped (confidence 1) [E15A4DAF] (AR v2) Copy OK
Track 6
Filename D:\Новая папка\06. Technohead - Bananane (Hardcore Edit).wav
Pre-gap length 0:00:00.30
Peak level 71.3 % Extraction speed 6.8 X Track quality 100.0 % Test CRC 79BC2365 Copy CRC 79BC2365 Accurately ripped (confidence 1) [B895E54C] (AR v2) Copy OK
Track 7
Filename D:\Новая папка\07. Bob Gee - Exctasy, You Got What I Need.wav
Pre-gap length 0:00:00.35
Peak level 94.3 % Extraction speed 6.4 X Track quality 99.9 % Test CRC 1263B252 Copy CRC 1263B252 Accurately ripped (confidence 1) [FEE12C37] (AR v2) Copy OK
Track 8
Filename D:\Новая папка\08. Dj Delirium - Your Local Dj.wav
Pre-gap length 0:00:00.42
Peak level 94.3 % Extraction speed 6.8 X Track quality 99.9 % Test CRC D7E665DB Copy CRC D7E665DB Accurately ripped (confidence 1) [DC9964CD] (AR v2) Copy OK
Track 9
Filename D:\Новая папка\09. Pulp Shock - Far Away (Dj Sim's Hardcore Mix).wav
Pre-gap length 0:00:00.50
Peak level 84.1 % Extraction speed 7.5 X Track quality 100.0 % Test CRC 51C33DC5 Copy CRC 51C33DC5 Accurately ripped (confidence 1) [99ADA65A] (AR v2) Copy OK
Track 10
Filename D:\Новая папка\10. Party Animals - Misadventures Of The Spiegelman.wav
Pre-gap length 0:00:00.07
Peak level 80.3 % Extraction speed 7.9 X Track quality 100.0 % Test CRC 90A9710B Copy CRC 90A9710B Accurately ripped (confidence 1) [B0325DFC] (AR v2) Copy OK
Track 11
Filename D:\Новая папка\11. Rotterdam Terror Corps - Hardcore Slam.wav
Pre-gap length 0:00:00.23
Peak level 79.4 % Extraction speed 8.3 X Track quality 100.0 % Test CRC 93A18CA6 Copy CRC 93A18CA6 Accurately ripped (confidence 1) [637AA887] (AR v2) Copy OK
Track 12
Filename D:\Новая папка\12. Dj Buzz Fuzz - Dreamgirl.wav
Pre-gap length 0:00:00.25
Peak level 78.5 % Extraction speed 8.6 X Track quality 100.0 % Test CRC D93FFF8A Copy CRC D93FFF8A Accurately ripped (confidence 1) [2577597C] (AR v2) Copy OK
Track 13
Filename D:\Новая папка\13. Dutch Verg - Bestial.wav
Pre-gap length 0:00:00.35
Peak level 84.1 % Extraction speed 7.4 X Track quality 99.9 % Test CRC 50A2DF8E Copy CRC 50A2DF8E Accurately ripped (confidence 1) [292AA086] (AR v2) Copy OK
Track 14
Filename D:\Новая папка\14. James Daltan - The Candle.wav
Pre-gap length 0:00:00.30
Peak level 84.1 % Extraction speed 8.8 X Track quality 100.0 % Test CRC 7F920135 Copy CRC 7F920135 Accurately ripped (confidence 1) [9777C2A5] (AR v2) Copy OK
Track 15
Filename D:\Новая папка\15. English Muffin - Dum Dum.wav
Pre-gap length 0:00:00.25
Peak level 85.1 % Extraction speed 9.0 X Track quality 100.0 % Test CRC B2E7FAA1 Copy CRC B2E7FAA1 Accurately ripped (confidence 1) [B4B914C9] (AR v2) Copy OK
Track 16
Filename D:\Новая папка\16. Dj Waxweazle & Dj Berry - We Are Animals.wav
Peak level 94.4 % Extraction speed 8.3 X Track quality 99.9 % Test CRC FC79DF70 Copy CRC FC79DF70 Accurately ripped (confidence 1) [6711C397] (AR v2) Copy OK
Track 17
Filename D:\Новая папка\17. Dj Gizmo - The Dope Man (Buzz Fuzz Remix).wav
Pre-gap length 0:00:00.53
Peak level 93.5 % Extraction speed 9.6 X Track quality 100.0 % Test CRC 780BB2CD Copy CRC 780BB2CD Accurately ripped (confidence 1) [566C08E7] (AR v2) Copy OK
All tracks accurately ripped
No errors occurred
End of status report
==== Log checksum 85A1406A031ACB4089A364D166ED7A108938F294E84D37C69E56DCE98E3EF94C ====

Содержание индексной карты (.CUE)

REM GENRE HardcoreREM DATE 1996REM DISCID DF11AE11REM COMMENT "ExactAudioCopy v1.0b3"PERFORMER "Various"TITLE "Real Hardcore 2"FILE "01. Dj Isaac - I'm A Gabber Baby.wav" WAVE TRACK 01 AUDIO TITLE "I'm A Gabber Baby" PERFORMER "Dj Isaac" INDEX 01 00:00:00 TRACK 02 AUDIO TITLE "My Little Fantasy (Bass D & King Matthew Mix)" PERFORMER "4 Tune Fairytales" INDEX 00 04:36:55FILE "02. 4 Tune Fairytales - My Little Fantasy (Bass D & King Matthew Mix).wav" WAVE INDEX 01 00:00:00 TRACK 03 AUDIO TITLE "Rave On (The Force Mix)" PERFORMER "Dj Paul" INDEX 00 04:25:68FILE "03. Dj Paul - Rave On (The Force Mix).wav" WAVE INDEX 01 00:00:00 TRACK 04 AUDIO TITLE "Always Hardcore" PERFORMER "Bodylotion" INDEX 00 04:34:28FILE "04. Bodylotion - Always Hardcore.wav" WAVE INDEX 01 00:00:00 TRACK 05 AUDIO TITLE "I Can't Stand It" PERFORMER "The Prophet" INDEX 00 03:11:25FILE "05. The Prophet - I Can't Stand It.wav" WAVE INDEX 01 00:00:00 TRACK 06 AUDIO TITLE "Bananane (Hardcore Edit)" PERFORMER "Technohead" INDEX 00 03:56:10FILE "06. Technohead - Bananane (Hardcore Edit).wav" WAVE INDEX 01 00:00:00 TRACK 07 AUDIO TITLE "Exctasy, You Got What I Need" PERFORMER "Bob Gee" INDEX 00 04:47:70FILE "07. Bob Gee - Exctasy, You Got What I Need.wav" WAVE INDEX 01 00:00:00 TRACK 08 AUDIO TITLE "Your Local Dj" PERFORMER "Dj Delirium" INDEX 00 04:48:68FILE "08. Dj Delirium - Your Local Dj.wav" WAVE INDEX 01 00:00:00 TRACK 09 AUDIO TITLE "Far Away (Dj Sim's Hardcore Mix)" PERFORMER "Pulp Shock" INDEX 00 05:01:35FILE "09. Pulp Shock - Far Away (Dj Sim's Hardcore Mix).wav" WAVE INDEX 01 00:00:00 TRACK 10 AUDIO TITLE "Misadventures Of The Spiegelman" PERFORMER "Party Animals" INDEX 00 03:53:28FILE "10. Party Animals - Misadventures Of The Spiegelman.wav" WAVE INDEX 01 00:00:00 TRACK 11 AUDIO TITLE "Hardcore Slam" PERFORMER "Rotterdam Terror Corps" INDEX 00 04:18:40FILE "11. Rotterdam Terror Corps - Hardcore Slam.wav" WAVE INDEX 01 00:00:00 TRACK 12 AUDIO TITLE "Dreamgirl" PERFORMER "Dj Buzz Fuzz" INDEX 00 05:04:62FILE "12. Dj Buzz Fuzz - Dreamgirl.wav" WAVE INDEX 01 00:00:00 TRACK 13 AUDIO TITLE "Bestial" PERFORMER "Dutch Verg" INDEX 00 04:58:30FILE "13. Dutch Verg - Bestial.wav" WAVE INDEX 01 00:00:00 TRACK 14 AUDIO TITLE "The Candle" PERFORMER "James Daltan" INDEX 00 03:31:08FILE "14. James Daltan - The Candle.wav" WAVE INDEX 01 00:00:00 TRACK 15 AUDIO TITLE "Dum Dum" PERFORMER "English Muffin" INDEX 00 04:23:35FILE "15. English Muffin - Dum Dum.wav" WAVE INDEX 01 00:00:00FILE "16. Dj Waxweazle & Dj Berry - We Are Animals.wav" WAVE TRACK 16 AUDIO TITLE "We Are Animals" PERFORMER "Dj Waxweazle & Dj Berry" INDEX 01 00:00:00 TRACK 17 AUDIO TITLE "The Dope Man (Buzz Fuzz Remix)" PERFORMER "Dj Gizmo" INDEX 00 04:33:65FILE "17. Dj Gizmo - The Dope Man (Buzz Fuzz Remix).wav" WAVE INDEX 01 00:00:00

Real Hardcore 3 1996

Real Hardcore 3
Жанр: Gabber, Happy Hardcore
Носитель: CD
Страна-производитель диска (релиза): Netherlands
Год издания: 1996
Издатель (лейбл): Arcade
Номер по каталогу: 01.10398
Аудиокодек: FLAC (*.flac)
Тип рипа: tracks+.cue
Битрейт аудио: lossless
Продолжительность: 01:16:57
Источник (релизер): Рип с диска из собственной коллекции.
Наличие сканов в содержимом раздачи: нет
Треклист:
1. Hakkubar - Gabbertje (Hakkuh Mix) (3:00)
2. Flamman & Abraxas - Good To Go (Klote Mix) (3:29)
3. Gabber Piet - Tandje Hoger (3:05)
4. DJ Dave & The Chicago Hardcore - Punish Tha Sound (4:00)
5. The Prophet - The Future is Ours (4:08)
6. Master Of Ceremony - Hardcore To Da Bone (4:25)
7. Das Xon - Psycopath (4:00)
8. Rotterdam Terror Corps - To Da Vague (3:48)
9. Critical Mass - Happy Generation (DJ Weirdo & Mt. Ness Remix) (3:34)
10. Blue Zone - Too Beautiful (Cixx's Happy Hardcore Version) (3:57)
11. 4 Tune Fairytales - Take Me To Wonderland (DJ Jordens Point .44 Mix) (3:47)
12. Megaman - Mega Man (DJ Weirdo & Guitar Rob Hardcore Remix) (4:01)
13. 50% Of The Dreamteam - Born To Fuck Your Wife (4:09)
14. Tiny Tot - La Bambolina (Bass-D & King Matthew Remix) (4:08)
15. Dj Weirdo & Dr. Phil Omanski - One Tribes Jam (Org. Ragga Edit) (3:42)
16. The Dark Raver - Intelligent Hardcore (3:48)
17. DJ Buzz Fuzz - Sweat ( I Wanna C Ya) (3:44)
18. DJ Paul Elstak - Unity (Bodylotion Mix) (4:06)
19. Hakkubar - Vet Wel (4:11)
20. MC Rage - Fuck Macarena (3:55)
Лог создания рипа
Exact Audio Copy V1.0 beta 3 from 29. August 2011
EAC extraction logfile from 19. July 2015, 10:04
Various / Real Hardcore 3 (With Correct Mix Versions)
Used drive : PIONEER DVD-RW DVR-111D Adapter: 0 ID: 0
Read mode : SecureUtilize accurate stream : YesDefeat audio cache : YesMake use of C2 pointers : No
Read offset correction : 48Overread into Lead-In and Lead-Out : NoFill up missing offset samples with silence : YesDelete leading and trailing silent blocks : NoNull samples used in CRC calculations : YesUsed interface : Installed external ASPI interfaceGap handling : Appended to previous track
Used output format : User Defined EncoderSelected bitrate : 128 kBit/sQuality : HighAdd ID3 tag : NoCommand line compressor : C:\Program Files (x86)\Exact Audio Copy\Flac\flac.exeAdditional command line options : -8 -V -T "ARTIST=%artist%" -T "TITLE=%title%" -T "ALBUM=%albumtitle%" -T "DATE=%year%" -T "TRACKNUMBER=%tracknr%" -T "TOTALTRACKS=%numtracks%" -T "DISCNUMBER=%cdnumber%" -T "TOTALDISCS=%totalcds%" -T "PERFORMER=%albuminterpret%" -T "COMPOSER=%composer%" -T "GENRE=%genre%" -T "ALBUMARTIST=%albumartist%" -T "ALBUM ARTIST=%albumartist%" -T "COMMENT=%comment%" %source%
TOC of the extracted CD
Track | Start | Length | Start sector | End sector --------------------------------------------------------- 1 | 0:00.00 | 3:00.55 | 0 | 13554 2 | 3:00.55 | 3:29.72 | 13555 | 29301 3 | 6:30.52 | 3:05.10 | 29302 | 43186 4 | 9:35.62 | 4:00.55 | 43187 | 61241 5 | 13:36.42 | 4:08.58 | 61242 | 79899 6 | 17:45.25 | 4:25.29 | 79900 | 99803 7 | 22:10.54 | 4:00.33 | 99804 | 117836 8 | 26:11.12 | 3:48.18 | 117837 | 134954 9 | 29:59.30 | 3:34.30 | 134955 | 151034 10 | 33:33.60 | 3:57.55 | 151035 | 168864 11 | 37:31.40 | 3:47.37 | 168865 | 185926 12 | 41:19.02 | 4:01.35 | 185927 | 204036 13 | 45:20.37 | 4:09.05 | 204037 | 222716 14 | 49:29.42 | 4:08.08 | 222717 | 241324 15 | 53:37.50 | 3:42.32 | 241325 | 258006 16 | 57:20.07 | 3:48.18 | 258007 | 275124 17 | 61:08.25 | 3:44.52 | 275125 | 291976 18 | 64:53.02 | 4:06.23 | 291977 | 310449 19 | 68:59.25 | 4:11.17 | 310450 | 329291 20 | 73:10.42 | 3:55.27 | 329292 | 346943
Track 1
Filename D:\Новая папка\01. Hakkubar - Gabbertje (Hakkuh Mix).wav
Pre-gap length 0:00:02.00
Peak level 98.1 % Extraction speed 4.5 X Track quality 100.0 % Test CRC F3820470 Copy CRC F3820470 Accurately ripped (confidence 2) [1488D71E] (AR v1) Copy OK
Track 2
Filename D:\Новая папка\02. Flamman & Abraxas - Good To Go (Klote Mix).wav
Pre-gap length 0:00:01.23
Peak level 98.2 % Extraction speed 5.0 X Track quality 100.0 % Test CRC 8E276D1C Copy CRC 8E276D1C Accurately ripped (confidence 2) [5DD9869B] (AR v1) Copy OK
Track 3
Filename D:\Новая папка\03. Gabber Piet - Tandje Hoger.wav
Pre-gap length 0:00:00.16
Peak level 97.6 % Extraction speed 5.2 X Track quality 100.0 % Test CRC F904F58C Copy CRC F904F58C Accurately ripped (confidence 2) [E603887B] (AR v1) Copy OK
Track 4
Filename D:\Новая папка\04. DJ Dave & The Chicago Hardcore - Punish Tha Sound.wav
Pre-gap length 0:00:00.27
Peak level 100.0 % Extraction speed 5.7 X Track quality 100.0 % Test CRC C285DEDB Copy CRC C285DEDB Accurately ripped (confidence 2) [9B8130BC] (AR v1) Copy OK
Track 5
Filename D:\Новая папка\05. The Prophet - The Future is Ours.wav
Pre-gap length 0:00:00.67
Peak level 100.0 % Extraction speed 6.1 X Track quality 100.0 % Test CRC 59560E1F Copy CRC 59560E1F Accurately ripped (confidence 2) [AAA18A3C] (AR v1) Copy OK
Track 6
Filename D:\Новая папка\06. Master Of Ceremony - Hardcore To Da Bone.wav
Pre-gap length 0:00:00.10
Peak level 100.0 % Extraction speed 6.5 X Track quality 100.0 % Test CRC D6B5EA0C Copy CRC D6B5EA0C Accurately ripped (confidence 2) [49367740] (AR v1) Copy OK
Track 7
Filename D:\Новая папка\07. Das Xon - Psycopath.wav
Pre-gap length 0:00:00.69
Peak level 98.5 % Extraction speed 6.7 X Track quality 100.0 % Test CRC 855F4539 Copy CRC 855F4539 Accurately ripped (confidence 2) [4227E3E9] (AR v1) Copy OK
Track 8
Filename D:\Новая папка\08. Rotterdam Terror Corps - To Da Vague.wav
Pre-gap length 0:00:00.30
Peak level 98.4 % Extraction speed 6.9 X Track quality 100.0 % Test CRC 2EE35EDF Copy CRC 2EE35EDF Accurately ripped (confidence 2) [07968D94] (AR v1) Copy OK
Track 9
Filename D:\Новая папка\09. Critical Mass - Happy Generation (DJ Weirdo & Mt. Ness Remix).wav
Pre-gap length 0:00:00.25
Peak level 98.0 % Extraction speed 7.1 X Track quality 100.0 % Test CRC 0EA1640C Copy CRC 0EA1640C Accurately ripped (confidence 2) [4DDB7DB5] (AR v1) Copy OK
Track 10
Filename D:\Новая папка\10. Blue Zone - Too Beautiful (Cixx's Happy Hardcore Version).wav
Pre-gap length 0:00:00.43
Peak level 98.8 % Extraction speed 6.6 X Track quality 99.9 % Test CRC 3581EA5B Copy CRC 3581EA5B Accurately ripped (confidence 2) [B973216A] (AR v1) Copy OK
Track 11
Filename D:\Новая папка\11. 4 Tune Fairytales - Take Me To Wonderland (DJ Jordens Point .44 Mix).wav
Pre-gap length 0:00:00.02
Peak level 94.6 % Extraction speed 7.6 X Track quality 100.0 % Test CRC 56201316 Copy CRC 56201316 Accurately ripped (confidence 2) [A6D61523] (AR v1) Copy OK
Track 12
Filename D:\Новая папка\12. Megaman - Mega Man (DJ Weirdo & Guitar Rob Hardcore Remix).wav
Pre-gap length 0:00:00.22
Peak level 80.6 % Extraction speed 7.8 X Track quality 100.0 % Test CRC E8921588 Copy CRC E8921588 Accurately ripped (confidence 2) [157E2DE3] (AR v1) Copy OK
Track 13
Filename D:\Новая папка\13. 50% Of The Dreamteam - Born To Fuck Your Wife.wav
Pre-gap length 0:00:00.14
Peak level 98.5 % Extraction speed 8.0 X Track quality 100.0 % Test CRC AC23BFB2 Copy CRC AC23BFB2 Accurately ripped (confidence 2) [75A61700] (AR v1) Copy OK
Track 14
Filename D:\Новая папка\14. Tiny Tot - La Bambolina (Bass-D & King Matthew Remix).wav
Pre-gap length 0:00:00.09
Peak level 98.2 % Extraction speed 8.3 X Track quality 100.0 % Test CRC 83FEA04C Copy CRC 83FEA04C Accurately ripped (confidence 2) [0F11F80E] (AR v1) Copy OK
Track 15
Filename D:\Новая папка\15. Dj Weirdo & Dr. Phil Omanski - One Tribes Jam (Org. Ragga Edit).wav
Peak level 98.4 % Extraction speed 7.3 X Track quality 99.9 % Test CRC D2FD097C Copy CRC D2FD097C Accurately ripped (confidence 2) [A38A1855] (AR v1) Copy OK
Track 16
Filename D:\Новая папка\16. The Dark Raver - Intelligent Hardcore.wav
Pre-gap length 0:00:00.08
Peak level 98.1 % Extraction speed 8.4 X Track quality 100.0 % Test CRC F84B7F39 Copy CRC F84B7F39 Accurately ripped (confidence 2) [A5505494] (AR v1) Copy OK
Track 17
Filename D:\Новая папка\17. DJ Buzz Fuzz - Sweat ( I Wanna C Ya).wav
Pre-gap length 0:00:00.48
Peak level 99.9 % Extraction speed 8.6 X Track quality 100.0 % Test CRC 6ED03BA1 Copy CRC 6ED03BA1 Accurately ripped (confidence 2) [C6924121] (AR v1) Copy OK
Track 18
Filename D:\Новая папка\18. DJ Paul Elstak - Unity (Bodylotion Mix).wav
Pre-gap length 0:00:00.52
Peak level 98.4 % Extraction speed 7.4 X Track quality 99.9 % Test CRC 300C8D3C Copy CRC 300C8D3C Accurately ripped (confidence 2) [E42F7F1A] (AR v1) Copy OK
Track 19
Filename D:\Новая папка\19. Hakkubar - Vet Wel.wav
Pre-gap length 0:00:00.35
Peak level 98.0 % Extraction speed 8.5 X Track quality 100.0 % Test CRC 0A703A20 Copy CRC 0A703A20 Accurately ripped (confidence 2) [9F0A51EC] (AR v1) Copy OK
Track 20
Filename D:\Новая папка\20. MC Rage - Fuck Macarena.wav
Pre-gap length 0:00:00.69
Peak level 98.3 % Extraction speed 6.9 X Track quality 99.9 % Test CRC 7F4503F0 Copy CRC 7F4503F0 Accurately ripped (confidence 2) [7D761DF8] (AR v1) Copy OK
All tracks accurately ripped
No errors occurred
End of status report
==== Log checksum 041FEF63A892BA67337E8184A81B6BC8A64EB4D3FE7BBFB29300A35465188FAF ====

Содержание индексной карты (.CUE)

REM GENRE HardcoreREM DATE 1996REM DISCID 15121114REM COMMENT "ExactAudioCopy v1.0b3"PERFORMER "Various"TITLE "Real Hardcore 3 (With Correct Mix Versions)"FILE "01. Hakkubar - Gabbertje (Hakkuh Mix).wav" WAVE TRACK 01 AUDIO TITLE "Gabbertje (Hakkuh Mix)" PERFORMER "Hakkubar" INDEX 01 00:00:00 TRACK 02 AUDIO TITLE "Good To Go (Klote Mix)" PERFORMER "Flamman & Abraxas" INDEX 00 02:59:32FILE "02. Flamman & Abraxas - Good To Go (Klote Mix).wav" WAVE INDEX 01 00:00:00 TRACK 03 AUDIO TITLE "Tandje Hoger" PERFORMER "Gabber Piet" INDEX 00 03:29:56FILE "03. Gabber Piet - Tandje Hoger.wav" WAVE INDEX 01 00:00:00 TRACK 04 AUDIO TITLE "Punish Tha Sound" PERFORMER "DJ Dave & The Chicago Hardcore" INDEX 00 03:04:58FILE "04. DJ Dave & The Chicago Hardcore - Punish Tha Sound.wav" WAVE INDEX 01 00:00:00 TRACK 05 AUDIO TITLE "The Future is Ours" PERFORMER "The Prophet" INDEX 00 03:59:63FILE "05. The Prophet - The Future is Ours.wav" WAVE INDEX 01 00:00:00 TRACK 06 AUDIO TITLE "Hardcore To Da Bone" PERFORMER "Master Of Ceremony" INDEX 00 04:08:48FILE "06. Master Of Ceremony - Hardcore To Da Bone.wav" WAVE INDEX 01 00:00:00 TRACK 07 AUDIO TITLE "Psycopath" PERFORMER "Das Xon" INDEX 00 04:24:35FILE "07. Das Xon - Psycopath.wav" WAVE INDEX 01 00:00:00 TRACK 08 AUDIO TITLE "To Da Vague" PERFORMER "Rotterdam Terror Corps" INDEX 00 04:00:03FILE "08. Rotterdam Terror Corps - To Da Vague.wav" WAVE INDEX 01 00:00:00 TRACK 09 AUDIO TITLE "Happy Generation (DJ Weirdo & Mt. Ness Remix)" PERFORMER "Critical Mass" INDEX 00 03:47:68FILE "09. Critical Mass - Happy Generation (DJ Weirdo & Mt. Ness Remix).wav" WAVE INDEX 01 00:00:00 TRACK 10 AUDIO TITLE "Too Beautiful (Cixx's Happy Hardcore Version)" PERFORMER "Blue Zone" INDEX 00 03:33:62FILE "10. Blue Zone - Too Beautiful (Cixx's Happy Hardcore Version).wav" WAVE INDEX 01 00:00:00 TRACK 11 AUDIO TITLE "Take Me To Wonderland (DJ Jordens Point .44 Mix)" PERFORMER "4 Tune Fairytales" INDEX 00 03:57:53FILE "11. 4 Tune Fairytales - Take Me To Wonderland (DJ Jordens Point .44 Mix).wav" WAVE INDEX 01 00:00:00 TRACK 12 AUDIO TITLE "Mega Man (DJ Weirdo & Guitar Rob Hardcore Remix)" PERFORMER "Megaman" INDEX 00 03:47:15FILE "12. Megaman - Mega Man (DJ Weirdo & Guitar Rob Hardcore Remix).wav" WAVE INDEX 01 00:00:00 TRACK 13 AUDIO TITLE "Born To Fuck Your Wife" PERFORMER "50% Of The Dreamteam" INDEX 00 04:01:21FILE "13. 50% Of The Dreamteam - Born To Fuck Your Wife.wav" WAVE INDEX 01 00:00:00 TRACK 14 AUDIO TITLE "La Bambolina (Bass-D & King Matthew Remix)" PERFORMER "Tiny Tot" INDEX 00 04:08:71FILE "14. Tiny Tot - La Bambolina (Bass-D & King Matthew Remix).wav" WAVE INDEX 01 00:00:00FILE "15. Dj Weirdo & Dr. Phil Omanski - One Tribes Jam (Org. Ragga Edit).wav" WAVE TRACK 15 AUDIO TITLE "One Tribes Jam (Org. Ragga Edit)" PERFORMER "Dj Weirdo & Dr. Phil Omanski" INDEX 01 00:00:00 TRACK 16 AUDIO TITLE "Intelligent Hardcore" PERFORMER "The Dark Raver" INDEX 00 03:42:24FILE "16. The Dark Raver - Intelligent Hardcore.wav" WAVE INDEX 01 00:00:00 TRACK 17 AUDIO TITLE "Sweat ( I Wanna C Ya)" PERFORMER "DJ Buzz Fuzz" INDEX 00 03:47:45FILE "17. DJ Buzz Fuzz - Sweat ( I Wanna C Ya).wav" WAVE INDEX 01 00:00:00 TRACK 18 AUDIO TITLE "Unity (Bodylotion Mix)" PERFORMER "DJ Paul Elstak" INDEX 00 03:44:00FILE "18. DJ Paul Elstak - Unity (Bodylotion Mix).wav" WAVE INDEX 01 00:00:00 TRACK 19 AUDIO TITLE "Vet Wel" PERFORMER "Hakkubar" INDEX 00 04:05:63FILE "19. Hakkubar - Vet Wel.wav" WAVE INDEX 01 00:00:00 TRACK 20 AUDIO TITLE "Fuck Macarena" PERFORMER "MC Rage" INDEX 00 04:10:23FILE "20. MC Rage - Fuck Macarena.wav" WAVE INDEX 01 00:00:00

Real Hardcore 4 1997

Real Hardcore 4
Жанр: Gabber, Happy Hardcore
Носитель: CD
Страна-производитель диска (релиза): Netherlands
Год издания: 1997
Издатель (лейбл): Arcade
Номер по каталогу: 10435 CD
Аудиокодек: FLAC (*.flac)
Тип рипа: tracks+.cue
Битрейт аудио: lossless
Продолжительность: 01:17:33
Источник (релизер): Рип с диска из собственной коллекции.
Наличие сканов в содержимом раздачи: нет
Треклист:
1. Hakkuhbar - Supergabber (Hakkuh Mix) (3:50)
2. DJ Paul, DJ Rob, & MC Hughie Babe - Lords Of The Hardschool (4:56)
3. Juggernaut - Ruffneck Rules Da Artcore Scene (2:53)
4. Gabberwijffie - Klappus In Je Handjes (2:59)
5. Frezerator - I.O.U. (3:43)
6. Echte Gabbers - Kotze & Brake (4:20)
7. Euromasters - Alles Naar De Klote (2:48)
8. Dark Raver & DJ Vince - Thunderground (3:33)
9. Rotterdam Terror Corps - We Would Die For Hardcore (3:39)
10. De Mosselman - Mossels (Hardcore Mix) (3:35)
11. Prezioso - Raise Your Power (Stunned Guys Version) (3:46)
12. The Prophet - What Is Life (5:15)
13. DJ Buzz Fuzz - Back To The Old School (7:03)
14. DJ Weirdo & MT. Ness - Metrodome (3:45)
15. James Daltan mets DJ X-Ess - Damned (3:52)
16. DJ Delirium & Guitar Rob - The Way That We Rocked (2:48)
17. DJ Waxweazle - 5x BANG!!!!! (4:34)
18. Lords Of The Underground - Fuckin Damn Beats (4:10)
19. DJ Rob - A Moment In Time (3:48)
20. System 3 - Shut Up (2:16)
Лог создания рипа
Exact Audio Copy V1.0 beta 3 from 29. August 2011
EAC extraction logfile from 19. July 2015, 11:50
various / Real Hardcore 4
Used drive : PIONEER DVD-RW DVR-111D Adapter: 0 ID: 0
Read mode : SecureUtilize accurate stream : YesDefeat audio cache : YesMake use of C2 pointers : No
Read offset correction : 48Overread into Lead-In and Lead-Out : NoFill up missing offset samples with silence : YesDelete leading and trailing silent blocks : NoNull samples used in CRC calculations : YesUsed interface : Installed external ASPI interfaceGap handling : Appended to previous track
Used output format : User Defined EncoderSelected bitrate : 128 kBit/sQuality : HighAdd ID3 tag : NoCommand line compressor : C:\Program Files (x86)\Exact Audio Copy\Flac\flac.exeAdditional command line options : -8 -V -T "ARTIST=%artist%" -T "TITLE=%title%" -T "ALBUM=%albumtitle%" -T "DATE=%year%" -T "TRACKNUMBER=%tracknr%" -T "TOTALTRACKS=%numtracks%" -T "DISCNUMBER=%cdnumber%" -T "TOTALDISCS=%totalcds%" -T "PERFORMER=%albuminterpret%" -T "COMPOSER=%composer%" -T "GENRE=%genre%" -T "ALBUMARTIST=%albumartist%" -T "ALBUM ARTIST=%albumartist%" -T "COMMENT=%comment%" %source%
TOC of the extracted CD
Track | Start | Length | Start sector | End sector --------------------------------------------------------- 1 | 0:00.00 | 3:50.62 | 0 | 17311 2 | 3:50.62 | 4:56.40 | 17312 | 39551 3 | 8:47.27 | 2:53.50 | 39552 | 52576 4 | 11:41.02 | 2:59.65 | 52577 | 66066 5 | 14:40.67 | 3:43.55 | 66067 | 82846 6 | 18:24.47 | 4:20.18 | 82847 | 102364 7 | 22:44.65 | 2:48.37 | 102365 | 115001 8 | 25:33.27 | 3:33.30 | 115002 | 131006 9 | 29:06.57 | 3:39.73 | 131007 | 147504 10 | 32:46.55 | 3:35.52 | 147505 | 163681 11 | 36:22.32 | 3:46.58 | 163682 | 180689 12 | 40:09.15 | 5:15.47 | 180690 | 204361 13 | 45:24.62 | 7:03.15 | 204362 | 236101 14 | 52:28.02 | 3:45.50 | 236102 | 253026 15 | 56:13.52 | 3:52.30 | 253027 | 270456 16 | 60:06.07 | 2:48.28 | 270457 | 283084 17 | 62:54.35 | 4:34.37 | 283085 | 303671 18 | 67:28.72 | 4:10.45 | 303672 | 322466 19 | 71:39.42 | 3:48.60 | 322467 | 339626 20 | 75:28.27 | 2:16.58 | 339627 | 349884
Track 1
Filename D:\Новая папка\01. Hakkuhbar - Supergabber (Hakkuh Mix).wav
Pre-gap length 0:00:02.00
Peak level 93.3 % Extraction speed 4.7 X Track quality 100.0 % Test CRC 7B56BDB5 Copy CRC 7B56BDB5 Track not present in AccurateRip database Copy OK
Track 2
Filename D:\Новая папка\02. DJ Paul, DJ Rob, & MC Hughie Babe - Lords Of The Hardschool.wav
Peak level 93.3 % Extraction speed 5.4 X Track quality 100.0 % Test CRC A7F88764 Copy CRC A7F88764 Track not present in AccurateRip database Copy OK
Track 3
Filename D:\Новая папка\03. Juggernaut - Ruffneck Rules Da Artcore Scene.wav
Peak level 92.2 % Extraction speed 5.3 X Track quality 100.0 % Test CRC DB20A7D6 Copy CRC DB20A7D6 Track not present in AccurateRip database Copy OK
Track 4
Filename D:\Новая папка\04. Gabberwijffie - Klappus In Je Handjes.wav
Peak level 92.6 % Extraction speed 5.6 X Track quality 100.0 % Test CRC 8457E9B5 Copy CRC 8457E9B5 Track not present in AccurateRip database Copy OK
Track 5
Filename D:\Новая папка\05. Frezerator - I.O.U..wav
Peak level 99.9 % Extraction speed 5.4 X Track quality 99.9 % Test CRC A9B4FE7D Copy CRC A9B4FE7D Track not present in AccurateRip database Copy OK
Track 6
Filename D:\Новая папка\06. Echte Gabbers - Kotze & Brake.wav
Peak level 93.3 % Extraction speed 5.8 X Track quality 99.9 % Test CRC 58BA2FA4 Copy CRC 58BA2FA4 Track not present in AccurateRip database Copy OK
Track 7
Filename D:\Новая папка\07. Euromasters - Alles Naar De Klote.wav
Peak level 91.7 % Extraction speed 6.3 X Track quality 100.0 % Test CRC 0D736AC3 Copy CRC 0D736AC3 Track not present in AccurateRip database Copy OK
Track 8
Filename D:\Новая папка\08. Dark Raver & DJ Vince - Thunderground.wav
Peak level 93.3 % Extraction speed 6.9 X Track quality 100.0 % Test CRC DD8184DE Copy CRC DD8184DE Track not present in AccurateRip database Copy OK
Track 9
Filename D:\Новая папка\09. Rotterdam Terror Corps - We Would Die For Hardcore.wav
Peak level 93.3 % Extraction speed 7.1 X Track quality 100.0 % Test CRC 0C41FE77 Copy CRC 0C41FE77 Track not present in AccurateRip database Copy OK
Track 10
Filename D:\Новая папка\10. De Mosselman - Mossels (Hardcore Mix).wav
Peak level 93.3 % Extraction speed 7.4 X Track quality 100.0 % Test CRC 7C13F763 Copy CRC 7C13F763 Track not present in AccurateRip database Copy OK
Track 11
Filename D:\Новая папка\11. Prezioso - Raise Your Power (Stunned Guys Version).wav
Peak level 93.3 % Extraction speed 7.6 X Track quality 100.0 % Test CRC 0D7E31E0 Copy CRC 0D7E31E0 Track not present in AccurateRip database Copy OK
Track 12
Filename D:\Новая папка\12. The Prophet - What Is Life.wav
Peak level 93.3 % Extraction speed 8.3 X Track quality 100.0 % Test CRC 671895FD Copy CRC 671895FD Track not present in AccurateRip database Copy OK
Track 13
Filename D:\Новая папка\13. DJ Buzz Fuzz - Back To The Old School.wav
Peak level 93.3 % Extraction speed 8.8 X Track quality 100.0 % Test CRC A019FAA5 Copy CRC A019FAA5 Track not present in AccurateRip database Copy OK
Track 14
Filename D:\Новая папка\14. DJ Weirdo & MT. Ness - Metrodome.wav
Peak level 93.3 % Extraction speed 8.6 X Track quality 100.0 % Test CRC 55005483 Copy CRC 55005483 Track not present in AccurateRip database Copy OK
Track 15
Filename D:\Новая папка\15. James Daltan mets DJ X-Ess - Damned.wav
Peak level 86.7 % Extraction speed 7.7 X Track quality 99.9 % Test CRC EA0124B7 Copy CRC EA0124B7 Track not present in AccurateRip database Copy OK
Track 16
Filename D:\Новая папка\16. DJ Delirium & Guitar Rob - The Way That We Rocked.wav
Peak level 89.3 % Extraction speed 8.4 X Track quality 100.0 % Test CRC 0BCC829B Copy CRC 0BCC829B Track not present in AccurateRip database Copy OK
Track 17
Filename D:\Новая папка\17. DJ Waxweazle - 5x BANG!!!!!.wav
Peak level 93.3 % Extraction speed 9.2 X Track quality 100.0 % Test CRC 7E0ACD7D Copy CRC 7E0ACD7D Track not present in AccurateRip database Copy OK
Track 18
Filename D:\Новая папка\18. Lords Of The Underground - Fuckin Damn Beats.wav
Peak level 93.3 % Extraction speed 9.3 X Track quality 100.0 % Test CRC 2A03F4CC Copy CRC 2A03F4CC Track not present in AccurateRip database Copy OK
Track 19
Filename D:\Новая папка\19. DJ Rob - A Moment In Time.wav
Pre-gap length 0:00:00.01
Peak level 93.3 % Extraction speed 9.4 X Track quality 100.0 % Test CRC 2D9DCB0C Copy CRC 2D9DCB0C Track not present in AccurateRip database Copy OK
Track 20
Filename D:\Новая папка\20. System 3 - Shut Up.wav
Peak level 93.3 % Extraction speed 7.1 X Track quality 99.9 % Test CRC E6C3373E Copy CRC E6C3373E Track not present in AccurateRip database Copy OK
None of the tracks are present in the AccurateRip database
No errors occurred
End of status report
==== Log checksum F88219274410B8A237A9F2006E0C91D13DCD06FC631BA03F32E459FDE109F508 ====

Содержание индексной карты (.CUE)

REM GENRE HardcoreREM DATE 1997REM DISCID 10123914REM COMMENT "ExactAudioCopy v1.0b3"PERFORMER "various"TITLE "Real Hardcore 4"FILE "01. Hakkuhbar - Supergabber (Hakkuh Mix).wav" WAVE TRACK 01 AUDIO TITLE "Supergabber (Hakkuh Mix)" PERFORMER "Hakkuhbar" INDEX 01 00:00:00FILE "02. DJ Paul, DJ Rob, & MC Hughie Babe - Lords Of The Hardschool.wav" WAVE TRACK 02 AUDIO TITLE "Lords Of The Hardschool" PERFORMER "DJ Paul, DJ Rob, & MC Hughie Babe" INDEX 01 00:00:00FILE "03. Juggernaut - Ruffneck Rules Da Artcore Scene.wav" WAVE TRACK 03 AUDIO TITLE "Ruffneck Rules Da Artcore Scene" PERFORMER "Juggernaut" INDEX 01 00:00:00FILE "04. Gabberwijffie - Klappus In Je Handjes.wav" WAVE TRACK 04 AUDIO TITLE "Klappus In Je Handjes" PERFORMER "Gabberwijffie" INDEX 01 00:00:00FILE "05. Frezerator - I.O.U..wav" WAVE TRACK 05 AUDIO TITLE "I.O.U." PERFORMER "Frezerator" INDEX 01 00:00:00FILE "06. Echte Gabbers - Kotze & Brake.wav" WAVE TRACK 06 AUDIO TITLE "Kotze & Brake" PERFORMER "Echte Gabbers" INDEX 01 00:00:00FILE "07. Euromasters - Alles Naar De Klote.wav" WAVE TRACK 07 AUDIO TITLE "Alles Naar De Klote" PERFORMER "Euromasters" INDEX 01 00:00:00FILE "08. Dark Raver & DJ Vince - Thunderground.wav" WAVE TRACK 08 AUDIO TITLE "Thunderground" PERFORMER "Dark Raver & DJ Vince" INDEX 01 00:00:00FILE "09. Rotterdam Terror Corps - We Would Die For Hardcore.wav" WAVE TRACK 09 AUDIO TITLE "We Would Die For Hardcore" PERFORMER "Rotterdam Terror Corps" INDEX 01 00:00:00FILE "10. De Mosselman - Mossels (Hardcore Mix).wav" WAVE TRACK 10 AUDIO TITLE "Mossels (Hardcore Mix)" PERFORMER "De Mosselman" INDEX 01 00:00:00FILE "11. Prezioso - Raise Your Power (Stunned Guys Version).wav" WAVE TRACK 11 AUDIO TITLE "Raise Your Power (Stunned Guys Version)" PERFORMER "Prezioso" INDEX 01 00:00:00FILE "12. The Prophet - What Is Life.wav" WAVE TRACK 12 AUDIO TITLE "What Is Life" PERFORMER "The Prophet" INDEX 01 00:00:00FILE "13. DJ Buzz Fuzz - Back To The Old School.wav" WAVE TRACK 13 AUDIO TITLE "Back To The Old School" PERFORMER "DJ Buzz Fuzz" INDEX 01 00:00:00FILE "14. DJ Weirdo & MT. Ness - Metrodome.wav" WAVE TRACK 14 AUDIO TITLE "Metrodome" PERFORMER "DJ Weirdo & MT. Ness" INDEX 01 00:00:00FILE "15. James Daltan mets DJ X-Ess - Damned.wav" WAVE TRACK 15 AUDIO TITLE "Damned" PERFORMER "James Daltan mets DJ X-Ess" INDEX 01 00:00:00FILE "16. DJ Delirium & Guitar Rob - The Way That We Rocked.wav" WAVE TRACK 16 AUDIO TITLE "The Way That We Rocked" PERFORMER "DJ Delirium & Guitar Rob" INDEX 01 00:00:00FILE "17. DJ Waxweazle - 5x BANG!!!!!.wav" WAVE TRACK 17 AUDIO TITLE "5x BANG!!!!!" PERFORMER "DJ Waxweazle" INDEX 01 00:00:00FILE "18. Lords Of The Underground - Fuckin Damn Beats.wav" WAVE TRACK 18 AUDIO TITLE "Fuckin Damn Beats" PERFORMER "Lords Of The Underground" INDEX 01 00:00:00 TRACK 19 AUDIO TITLE "A Moment In Time" PERFORMER "DJ Rob" INDEX 00 04:10:44FILE "19. DJ Rob - A Moment In Time.wav" WAVE INDEX 01 00:00:00FILE "20. System 3 - Shut Up.wav" WAVE TRACK 20 AUDIO TITLE "Shut Up" PERFORMER "System 3" INDEX 01 00:00:00

Real Hardcore 5 1997

Real Hardcore 5
Жанр: Gabber, Happy Hardcore
Носитель: CD
Страна-производитель диска (релиза): Netherlands
Год издания: 1997
Издатель (лейбл): Arcade
Номер по каталогу: 0110474
Аудиокодек: FLAC (*.flac)
Тип рипа: tracks+.cue
Битрейт аудио: lossless
Продолжительность: 01:15:27
Источник (релизер): Рип с диска из собственной коллекции.
Наличие сканов в содержимом раздачи: нет
Треклист:
1. Hakkuhbar - Gabbersaurus (Radio Mix) (3:06)
2. Mosselman - Opzij Opzij (Hardcoremix) (4:01)
3. Highlander - Hold Me Now '97 (Rob Gee & Temper Tantrum Mix) (3:33)
4. 3 Steps Ahead - Hakkuh (Loud Video Mix) (4:01)
5. No Gravity - All The People (B.S.E. Remix) (2:57)
6. Square Dimension - Baddest Muthafucker (Buzzy's Anthem Mix) (4:55)
7. Gabber Piet - Love U Hardcore (Vhu Remix) (4:31)
8. Daytona - Love Is In Need (Slammin' Mix) (4:23)
9. Swat - The Fly Is Dead (Public Domain Mix) (3:49)
10. Dj Sim - Going Nord (3:41)
11. Masters Of Ceremony - Hardcore To Da Bone (Masters Of Ceremony Dope Mix) (3:33)
12. Unknown Project - Can't Get Enough Of Hardcore (4:16)
13. Darrien Kelly Vs. Stunned Guys - Party Rico! (3:30)
14. Dj Attic & Stylzz - God's Rock 'n Roll (3:44)
15. G-town Madness - Fucked In This Ho' Shit (3:29)
16. Wayward - Hardcore Hijacked Me (2:54)
17. Neophyte Vs Stunned Guys - Get This Motherfucker (3:57)
18. Clock - Fly Away (Dj Dione Hardcore Mix) (4:20)
19. Tschabos - Chikkas (3:38)
20. Dj Rob & Mc Joe - The Crowd Is Moving (3:09)
Лог создания рипа
Exact Audio Copy V1.0 beta 3 from 29. August 2011
EAC extraction logfile from 19. July 2015, 12:56
Various / Real Hardcore 5
Used drive : PIONEER DVD-RW DVR-111D Adapter: 0 ID: 0
Read mode : SecureUtilize accurate stream : YesDefeat audio cache : YesMake use of C2 pointers : No
Read offset correction : 48Overread into Lead-In and Lead-Out : NoFill up missing offset samples with silence : YesDelete leading and trailing silent blocks : NoNull samples used in CRC calculations : YesUsed interface : Installed external ASPI interfaceGap handling : Appended to previous track
Used output format : User Defined EncoderSelected bitrate : 128 kBit/sQuality : HighAdd ID3 tag : NoCommand line compressor : C:\Program Files (x86)\Exact Audio Copy\Flac\flac.exeAdditional command line options : -8 -V -T "ARTIST=%artist%" -T "TITLE=%title%" -T "ALBUM=%albumtitle%" -T "DATE=%year%" -T "TRACKNUMBER=%tracknr%" -T "TOTALTRACKS=%numtracks%" -T "DISCNUMBER=%cdnumber%" -T "TOTALDISCS=%totalcds%" -T "PERFORMER=%albuminterpret%" -T "COMPOSER=%composer%" -T "GENRE=%genre%" -T "ALBUMARTIST=%albumartist%" -T "ALBUM ARTIST=%albumartist%" -T "COMMENT=%comment%" %source%
TOC of the extracted CD
Track | Start | Length | Start sector | End sector --------------------------------------------------------- 1 | 0:00.00 | 3:06.47 | 0 | 13996 2 | 3:06.47 | 4:01.28 | 13997 | 32099 3 | 7:08.00 | 3:33.64 | 32100 | 48138 4 | 10:41.64 | 4:01.73 | 48139 | 66286 5 | 14:43.62 | 2:57.58 | 66287 | 79619 6 | 17:41.45 | 4:55.15 | 79620 | 101759 7 | 22:36.60 | 4:31.05 | 101760 | 122089 8 | 27:07.65 | 4:23.15 | 122090 | 141829 9 | 31:31.05 | 3:49.22 | 141830 | 159026 10 | 35:20.27 | 3:41.18 | 159027 | 175619 11 | 39:01.45 | 3:33.22 | 175620 | 191616 12 | 42:34.67 | 4:16.50 | 191617 | 210866 13 | 46:51.42 | 3:30.45 | 210867 | 226661 14 | 50:22.12 | 3:44.68 | 226662 | 243529 15 | 54:07.05 | 3:29.02 | 243530 | 259206 16 | 57:36.07 | 2:54.55 | 259207 | 272311 17 | 60:30.62 | 3:57.58 | 272312 | 290144 18 | 64:28.45 | 4:20.67 | 290145 | 309711 19 | 68:49.37 | 3:38.10 | 309712 | 326071 20 | 72:27.47 | 3:09.70 | 326072 | 340316
Track 1
Filename D:\Новая папка\01. Hakkuhbar - Gabbersaurus (Radio Mix).wav
Pre-gap length 0:00:02.00
Peak level 70.7 % Extraction speed 4.6 X Track quality 100.0 % Test CRC 2EFAFB1C Copy CRC 2EFAFB1C Accurately ripped (confidence 1) [15649AB4] (AR v2) Copy OK
Track 2
Filename D:\Новая папка\02. Mosselman - Opzij Opzij (Hardcoremix).wav
Peak level 100.0 % Extraction speed 4.6 X Track quality 99.9 % Test CRC 72F27C49 Copy CRC 72F27C49 Accurately ripped (confidence 1) [3BBF6FB8] (AR v2) Copy OK
Track 3
Filename D:\Новая папка\03. Highlander - Hold Me Now '97 (Rob Gee & Temper Tantrum Mix).wav
Peak level 100.0 % Extraction speed 5.5 X Track quality 100.0 % Test CRC B685D1D3 Copy CRC B685D1D3 Accurately ripped (confidence 1) [B805DBC1] (AR v2) Copy OK
Track 4
Filename D:\Новая папка\04. 3 Steps Ahead - Hakkuh (Loud Video Mix).wav
Peak level 79.4 % Extraction speed 6.0 X Track quality 100.0 % Test CRC 997A8C42 Copy CRC 997A8C42 Accurately ripped (confidence 1) [4B4B5EC0] (AR v2) Copy OK
Track 5
Filename D:\Новая папка\05. No Gravity - All The People (B.S.E. Remix).wav
Peak level 100.0 % Extraction speed 6.0 X Track quality 100.0 % Test CRC 32469FDB Copy CRC 32469FDB Accurately ripped (confidence 1) [4D9221CA] (AR v2) Copy OK
Track 6
Filename D:\Новая папка\06. Square Dimension - Baddest Muthafucker (Buzzy's Anthem Mix).wav
Peak level 70.7 % Extraction speed 6.7 X Track quality 100.0 % Test CRC 802C3AF8 Copy CRC 802C3AF8 Accurately ripped (confidence 1) [1148EB80] (AR v2) Copy OK
Track 7
Filename D:\Новая папка\07. Gabber Piet - Love U Hardcore (Vhu Remix).wav
Peak level 44.6 % Extraction speed 7.0 X Track quality 100.0 % Test CRC 16194459 Copy CRC 16194459 Accurately ripped (confidence 1) [762F5E52] (AR v2) Copy OK
Track 8
Filename D:\Новая папка\08. Daytona - Love Is In Need (Slammin' Mix).wav
Peak level 70.7 % Extraction speed 7.3 X Track quality 100.0 % Test CRC 6893C45D Copy CRC 6893C45D Accurately ripped (confidence 1) [0D9BA04E] (AR v2) Copy OK
Track 9
Filename D:\Новая папка\09. Swat - The Fly Is Dead (Public Domain Mix).wav
Peak level 70.7 % Extraction speed 7.4 X Track quality 100.0 % Test CRC 8B3C20B9 Copy CRC 8B3C20B9 Accurately ripped (confidence 1) [AB95D05B] (AR v2) Copy OK
Track 10
Filename D:\Новая папка\10. Dj Sim - Going Nord.wav
Peak level 100.0 % Extraction speed 7.6 X Track quality 100.0 % Test CRC 26667F3B Copy CRC 26667F3B Accurately ripped (confidence 1) [114FA6A7] (AR v2) Copy OK
Track 11
Filename D:\Новая папка\11. Masters Of Ceremony - Hardcore To Da Bone (Masters Of Ceremony Dope Mix).wav
Pre-gap length 0:00:00.01
Peak level 97.7 % Extraction speed 7.8 X Track quality 100.0 % Test CRC 3A5F3566 Copy CRC 3A5F3566 Accurately ripped (confidence 1) [A819E7EA] (AR v2) Copy OK
Track 12
Filename D:\Новая папка\12. Unknown Project - Can't Get Enough Of Hardcore.wav
Peak level 100.0 % Extraction speed 8.2 X Track quality 100.0 % Test CRC 7485C226 Copy CRC 7485C226 Accurately ripped (confidence 1) [695D6D92] (AR v2) Copy OK
Track 13
Filename D:\Новая папка\13. Darrien Kelly Vs. Stunned Guys - Party Rico!.wav
Peak level 75.7 % Extraction speed 8.2 X Track quality 100.0 % Test CRC A5E0F18D Copy CRC A5E0F18D Accurately ripped (confidence 1) [EFAB53C0] (AR v2) Copy OK
Track 14
Filename D:\Новая папка\14. Dj Attic & Stylzz - God's Rock 'n Roll.wav
Peak level 100.0 % Extraction speed 8.5 X Track quality 100.0 % Test CRC E2976448 Copy CRC E2976448 Accurately ripped (confidence 1) [D41523A1] (AR v2) Copy OK
Track 15
Filename D:\Новая папка\15. G-town Madness - Fucked In This Ho' Shit.wav
Peak level 99.8 % Extraction speed 8.5 X Track quality 100.0 % Test CRC 0DBDF9C0 Copy CRC 0DBDF9C0 Accurately ripped (confidence 1) [9527F99C] (AR v2) Copy OK
Track 16
Filename D:\Новая папка\16. Wayward - Hardcore Hijacked Me.wav
Peak level 76.2 % Extraction speed 8.3 X Track quality 100.0 % Test CRC CA4A8611 Copy CRC CA4A8611 Accurately ripped (confidence 1) [142C497A] (AR v2) Copy OK
Track 17
Filename D:\Новая папка\17. Neophyte Vs Stunned Guys - Get This Motherfucker.wav
Peak level 70.7 % Extraction speed 9.0 X Track quality 100.0 % Test CRC EEC4E65B Copy CRC EEC4E65B Accurately ripped (confidence 1) [56BE90FC] (AR v2) Copy OK
Track 18
Filename D:\Новая папка\18. Clock - Fly Away (Dj Dione Hardcore Mix).wav
Peak level 100.0 % Extraction speed 9.4 X Track quality 100.0 % Test CRC 7CEE9B0D Copy CRC 7CEE9B0D Accurately ripped (confidence 1) [B9FF2CE3] (AR v2) Copy OK
Track 19
Filename D:\Новая папка\19. Tschabos - Chikkas.wav
Peak level 100.0 % Extraction speed 8.1 X Track quality 99.9 % Test CRC DAB4DC2A Copy CRC DAB4DC2A Accurately ripped (confidence 1) [2E32E7C4] (AR v2) Copy OK
Track 20
Filename D:\Новая папка\20. Dj Rob & Mc Joe - The Crowd Is Moving.wav
Peak level 71.0 % Extraction speed 7.9 X Track quality 99.9 % Test CRC EC0248AE Copy CRC EC0248AE Accurately ripped (confidence 1) [545F2507] (AR v2) Copy OK
All tracks accurately ripped
No errors occurred
End of status report
==== Log checksum 0E1F93F7769BB106521D36EC845E1084088210B9F7BEB831FC5315DDF5C78A1D ====

Содержание индексной карты (.CUE)

REM GENRE Euro-HouseREM DATE 1997REM DISCID 1E11B914REM COMMENT "ExactAudioCopy v1.0b3"PERFORMER "Various"TITLE "Real Hardcore 5"FILE "01. Hakkuhbar - Gabbersaurus (Radio Mix).wav" WAVE TRACK 01 AUDIO TITLE "Gabbersaurus (Radio Mix)" PERFORMER "Hakkuhbar" INDEX 01 00:00:00FILE "02. Mosselman - Opzij Opzij (Hardcoremix).wav" WAVE TRACK 02 AUDIO TITLE "Opzij Opzij (Hardcoremix)" PERFORMER "Mosselman" INDEX 01 00:00:00FILE "03. Highlander - Hold Me Now '97 (Rob Gee & Temper Tantrum Mix).wav" WAVE TRACK 03 AUDIO TITLE "Hold Me Now '97 (Rob Gee & Temper Tantrum Mix)" PERFORMER "Highlander" INDEX 01 00:00:00FILE "04. 3 Steps Ahead - Hakkuh (Loud Video Mix).wav" WAVE TRACK 04 AUDIO TITLE "Hakkuh (Loud Video Mix)" PERFORMER "3 Steps Ahead" INDEX 01 00:00:00FILE "05. No Gravity - All The People (B.S.E. Remix).wav" WAVE TRACK 05 AUDIO TITLE "All The People (B.S.E. Remix)" PERFORMER "No Gravity" INDEX 01 00:00:00FILE "06. Square Dimension - Baddest Muthafucker (Buzzy's Anthem Mix).wav" WAVE TRACK 06 AUDIO TITLE "Baddest Muthafucker (Buzzy's Anthem Mix)" PERFORMER "Square Dimension" INDEX 01 00:00:00FILE "07. Gabber Piet - Love U Hardcore (Vhu Remix).wav" WAVE TRACK 07 AUDIO TITLE "Love U Hardcore (Vhu Remix)" PERFORMER "Gabber Piet" INDEX 01 00:00:00FILE "08. Daytona - Love Is In Need (Slammin' Mix).wav" WAVE TRACK 08 AUDIO TITLE "Love Is In Need (Slammin' Mix)" PERFORMER "Daytona" INDEX 01 00:00:00FILE "09. Swat - The Fly Is Dead (Public Domain Mix).wav" WAVE TRACK 09 AUDIO TITLE "The Fly Is Dead (Public Domain Mix)" PERFORMER "Swat" INDEX 01 00:00:00FILE "10. Dj Sim - Going Nord.wav" WAVE TRACK 10 AUDIO TITLE "Going Nord" PERFORMER "Dj Sim" INDEX 01 00:00:00 TRACK 11 AUDIO TITLE "Hardcore To Da Bone (Masters Of Ceremony Dope Mix)" PERFORMER "Masters Of Ceremony" INDEX 00 03:41:17FILE "11. Masters Of Ceremony - Hardcore To Da Bone (Masters Of Ceremony Dope Mix).wav" WAVE INDEX 01 00:00:00FILE "12. Unknown Project - Can't Get Enough Of Hardcore.wav" WAVE TRACK 12 AUDIO TITLE "Can't Get Enough Of Hardcore" PERFORMER "Unknown Project" INDEX 01 00:00:00FILE "13. Darrien Kelly Vs. Stunned Guys - Party Rico!.wav" WAVE TRACK 13 AUDIO TITLE "Party Rico!" PERFORMER "Darrien Kelly Vs. Stunned Guys" INDEX 01 00:00:00FILE "14. Dj Attic & Stylzz - God's Rock 'n Roll.wav" WAVE TRACK 14 AUDIO TITLE "God's Rock 'n Roll" PERFORMER "Dj Attic & Stylzz" INDEX 01 00:00:00FILE "15. G-town Madness - Fucked In This Ho' Shit.wav" WAVE TRACK 15 AUDIO TITLE "Fucked In This Ho' Shit" PERFORMER "G-town Madness" INDEX 01 00:00:00FILE "16. Wayward - Hardcore Hijacked Me.wav" WAVE TRACK 16 AUDIO TITLE "Hardcore Hijacked Me" PERFORMER "Wayward" INDEX 01 00:00:00FILE "17. Neophyte Vs Stunned Guys - Get This Motherfucker.wav" WAVE TRACK 17 AUDIO TITLE "Get This Motherfucker" PERFORMER "Neophyte Vs Stunned Guys" INDEX 01 00:00:00FILE "18. Clock - Fly Away (Dj Dione Hardcore Mix).wav" WAVE TRACK 18 AUDIO TITLE "Fly Away (Dj Dione Hardcore Mix)" PERFORMER "Clock" INDEX 01 00:00:00FILE "19. Tschabos - Chikkas.wav" WAVE TRACK 19 AUDIO TITLE "Chikkas" PERFORMER "Tschabos" INDEX 01 00:00:00FILE "20. Dj Rob & Mc Joe - The Crowd Is Moving.wav" WAVE TRACK 20 AUDIO TITLE "The Crowd Is Moving" PERFORMER "Dj Rob & Mc Joe" INDEX 01 00:00:00
Discogs

_________________
Показать сообщения:    

Текущее время: Сегодня 02:36

Часовой пояс: GMT



Вы не можете начинать темы
Вы не можете отвечать на сообщения
Вы не можете редактировать свои сообщения
Вы не можете удалять свои сообщения
Вы не можете голосовать в опросах
Вы не можете прикреплять файлы к сообщениям
Вы не можете скачивать файлы